Жалобы на работу трекера ! прошу сюда :)

Скандальная столица / Capital Scandal [16/16] (Хан Чжун Со) [360] [RUS(int)] [2007 г., драма, романтическая комедия, HDTVRip] DVO GREEN TEA

Ответить на тему
 
Автор Сообщение

dusy78 ®

Стаж: 3 года 10 месяцев

Сообщений: 1005

Откуда: Россия

Пост 26-Сен-2014 07:39

[Цитировать]

Скандальная столица / Capital Scandal Год выпуска: 2007
Страна: Южная Корея
Жанр: драма, романтическая комедия
Продолжительность: 16/16
Озвучивание: Hloe и Spellhowler
СЕМПЛ: https://yadi.sk/i/3_NTC7TCbyGwK
Режиссер: Хан Чжун Со
В ролях:
Кан Чжи Хван в роли Сон У Вана (Аромат лета, Оставь последний танец мне, Фестиваль фейерверков, Хон Гиль Дон, Несмонтированный фильм, Моя девушка - спецагент),
Хан Чжи Мин в роли На Ё Гён (Ва-банк, Жемчужина дворца, Воскрешение, Ли Сан - Король Чончжо, Каин и Авель),
Рю Чжин в роли Ли Су Хёна (Мы - победим!, Мёртвый друг)
Хан Го Ын в роли Чха Сон Чжу
Описание: Драма снята по роману Ли Сун Ми "Сеульский скандал", из-под её пера вышел Первое кафе Принц.
Дело происходит в 30-е годы 20 века в оккупированной японцами Корее. Не пугайтесь, будет весело - с такими-то главными героями!
На Ё Гён - молоденькая, но вечно поучающая и вредная училка вечерней школы, по совместительству партизанский суперагент. Носит национальную одежду (последняя в Сеуле). Принципиальна до неприличия.
Сон У Ван - злостный плейбой и неотразимый лентяй (или наоборот), сынок богатых родителей и по совместительству газетная крыса. Живет в борделе.
Ли Су Хён - бывший друг детства Вана, а сейчас заклятый враг и перебежчик, следователь японской полиции, один из расследующих вереницу убийств. При этом красавчик, положительный, не женат. Что на уме - неизвестно.
Чха Сон Чжу - самая известная куртизанка Сеула, красивая и умная женщина. По совместительству близкая подруга Сон У Вана, нет-нет, только подруга.
Кроме любовной линии в драме есть еще лихо закрученный детективный сюжет. Да, мальчикам тоже можно посмотреть.
Кто-то решил отомстить япончинам и вышел на охоту. Кто же этот национальный мститель? Под подозрения попадают многие... А в это время далекий от политики Сон У Ван, в очередной раз напившись много-много соджу, спорит с друзьями, что покорит самую страшную женщину в Корей-городе по кличке Чо Ма Чжа, конечно, не зная, что это его "старая напарница по кулачным боям" На Ё Гён ...и закрутилось и поехало, ведь на кону честь великого сердцееда и его авто.-Доп. информация: Релиз-группа "GREEN TEA"
Перевод: milayababy
Постер: Amoreoni -Качество: TVRip
Формат: AVI
Видео: 624x352, ~1300 Кбит/с, 29.97 fps
Аудио: RUS(int), MP3, 2ch, 48.0 KHz, 192 Kbps
Альтернативная раздача 1280х720
Доп. информация: Ост к дораме Скандальная столица

Скриншоты

MediaInfo

General
Complete name : J:\Архив GREEN TEA\[GREEN TEA] Capital Scandal (360р)\Capital Scandal_01.avi
Format : AVI
Format/Info : Audio Video Interleave
File size : 805 MiB
Duration : 1h 14mn
Overall bit rate : 1 506 Kbps
Writing application : Lavf54.63.104
Video
ID : 0
Format : xvid
Codec ID : xvid
Duration : 1h 14mn
Bit rate : 1 300 Kbps
Width : 624 pixels
Height : 352 pixels
Display aspect ratio : 16:9
Frame rate : 29.970 fps
Bits/(Pixel*Frame) : 0.197
Stream size : 695 MiB (86%)
Audio
ID : 1
Format : MPEG Audio
Format version : Version 1
Format profile : Layer 3
Mode : Joint stereo
Codec ID : 55
Codec ID/Hint : MP3
Duration : 1h 14mn
Bit rate mode : Constant
Bit rate : 192 Kbps
Channel(s) : 2 channels
Sampling rate : 48.0 KHz
Compression mode : Lossy
Stream size : 103 MiB (13%)
Alignment : Aligned on interleaves
Interleave, duration : 24 ms (0.72 video frame)
[Профиль] [ЛС]

Светик

Стаж: 3 года 1 месяц

Сообщений: 15

Откуда: Украина, Донецкая область, город Торез

Пост 01-Июл-2015 14:31 (спустя 9 месяцев 5 дней)

[Цитировать]

Станьте кто-нибудь на раздачу пожалуйста

_________________
У парня одна пара глаз, поэтому ему следует смотреть на одну девушку.
[Профиль] [ЛС]
Показать сообщения:    
Ответить на тему

Текущее время: Сегодня 03:55

Часовой пояс: GMT



Вы не можете начинать темы
Вы не можете отвечать на сообщения
Вы не можете редактировать свои сообщения
Вы не можете удалять свои сообщения
Вы не можете голосовать в опросах
Вы не можете прикреплять файлы к сообщениям
Вы не можете скачивать файлы