Жалобы на работу трекера ! прошу сюда :)

Русалочка / The Mermaid / Surplus Princess (Baek Seung Ryong) [2014 г., романтика, фэнтэзи, комедия, HDTV] [10/10] [360] DVO GREEN TEA

Ответить на тему
 
Автор Сообщение

dusy78 ®

Стаж: 3 года 10 месяцев

Сообщений: 1005

Откуда: Россия

Пост 26-Сен-2014 09:17

[Цитировать]

Русалочка / The Mermaid / Surplus Princess
Год выпуска: 2014
Страна: Южная Корея
Жанр: романтика, фэнтэзи, комедия
Продолжительность: 10/10
Озвучивание: Марина Кириченко и Ярослав Мельник
СЕМПЛ: https://yadi.sk/i/D8ykNHImbyGcg
Режиссер: Baek Seung Ryong
В ролях: О Чжу Ван - Ли Хён Мён
Чо Бо А - Ким Ха Ни
Сон Чжэ Рим - Квон Си Гён
Ким Сыль Ги - Ан Хэ Ён
Описание: На что способна женщина ради любви? Ха Ни(Чо Бо А) - принцесса подводной империи, но после того, как увидела и влюбилась в человека, её тянет в мир людей.
Превратившись в человека, она за 100 дней должна влюбить в себя главного героя, чтобы навсегда остаться человеком...
Komediantka
Доп. информация:
Релиз группы: GREEN TEA
Перевод: ФСГ Мания
Оформление постера: Роман NovA_JKE
Качество: TVRip
Формат: AVI
Видео кодек: XviD
Аудио кодек: MP3
Видео: 624x352, ~1400 Кбит/с, 29.97 fps
Аудио: RUS(int), MP3, 2ch, 48.0 KHz, 192 Kbps
Альтернативная раздача 1280х720
ОСТ к дораме Русалочка

Скриншоты

MediaInfo

General
Complete name : F:\Рабочая!!!1\Русалочка\[GREEN TEA] Русалочка (360)\[GREEN TEA] Русалочка (360)_01.avi
Format : AVI
Format/Info : Audio Video Interleave
File size : 530 MiB
Duration : 46mn 21s
Overall bit rate : 1 599 Kbps
Writing application : VirtualDubMod 1.5.10.2 (build 2542/release)
Writing library : VirtualDubMod build 2542/release
Video
ID : 0
Format : MPEG-4 Visual
Format profile : Simple@L3
Format settings, BVOP : No
Format settings, QPel : No
Format settings, GMC : No warppoints
Format settings, Matrix : Default (H.263)
Codec ID : DX50
Codec ID/Hint : DivX 5
Duration : 46mn 21s
Bit rate : 1 395 Kbps
Width : 624 pixels
Height : 352 pixels
Display aspect ratio : 16:9
Frame rate : 29.970 fps
Color space : YUV
Chroma subsampling : 4:2:0
Bit depth : 8 bits
Scan type : Progressive
Compression mode : Lossy
Bits/(Pixel*Frame) : 0.212
Stream size : 462 MiB (87%)
Writing library : XviD 64
Audio
ID : 1
Format : MPEG Audio
Format version : Version 1
Format profile : Layer 3
Mode : Joint stereo
Codec ID : 55
Codec ID/Hint : MP3
Duration : 46mn 21s
Bit rate mode : Constant
Bit rate : 192 Kbps
Channel(s) : 2 channels
Sampling rate : 48.0 KHz
Compression mode : Lossy
Stream size : 63.7 MiB (12%)
Alignment : Aligned on interleaves
Interleave, duration : 33 ms (1.00 video frame)
Interleave, preload duration : 504 ms


Последний раз редактировалось: dusy78 (2014-10-13 14:51), всего редактировалось 6 раз(а)
[Профиль] [ЛС]

Tainted-love

Стаж: 2 года 11 месяцев

Сообщений: 1180

Пост 27-Сен-2014 21:11 (спустя 1 день 11 часов)

[Цитировать]

Спасибо за меньший размер!!!!!!!!!!
[Профиль] [ЛС]

dusy78 ®

Стаж: 3 года 10 месяцев

Сообщений: 1005

Откуда: Россия

Пост 28-Сен-2014 16:41 (спустя 19 часов)

[Цитировать]

Добавлена 8 серия!
[Профиль] [ЛС]

Mishatyan

Стаж: 3 года 1 месяц

Сообщений: 11

Пост 30-Сен-2014 12:09 (спустя 1 день 19 часов)

[Цитировать]

Очень интересная тема для дорамки. Спасибо за раздачу! Но смотреть буду когда все выйдет.
Уже 3 сериала начала смотреть и теперь жду всех троих. Так томительно
[Профиль] [ЛС]

Tainted-love

Стаж: 2 года 11 месяцев

Сообщений: 1180

Пост 03-Окт-2014 20:08 (спустя 3 дня)

[Цитировать]

Спасибо за новую серию... вы действительно очень быстро работаете... спасибо.
[Профиль] [ЛС]

limitana

Стаж: 3 года 10 месяцев

Сообщений: 153

Пост 06-Окт-2014 16:33 (спустя 2 дня 20 часов)

[Цитировать]

Спасибо!
[Профиль] [ЛС]

dusy78 ®

Стаж: 3 года 10 месяцев

Сообщений: 1005

Откуда: Россия

Пост 08-Окт-2014 07:53 (спустя 1 день 15 часов)

[Цитировать]

Добавлена 9 серия!
[Профиль] [ЛС]

j_777

Стаж: 3 года 9 месяцев

Сообщений: 302

Пост 08-Окт-2014 13:33 (спустя 5 часов)

[Цитировать]

Спасибки огромное!!!!!
[Профиль] [ЛС]

inga_li

Стаж: 2 года 9 месяцев

Сообщений: 43

Пост 08-Окт-2014 14:53 (спустя 1 час 20 минут)

[Цитировать]

большое спасибо! от сыночка отдельное)))
[Профиль] [ЛС]

Tainted-love

Стаж: 2 года 11 месяцев

Сообщений: 1180

Пост 11-Окт-2014 16:18 (спустя 3 дня)

[Цитировать]

Спасибо за новую серию.
[Профиль] [ЛС]

nuranura

Стаж: 3 года 1 месяц

Сообщений: 142

Пост 13-Окт-2014 05:32 (спустя 1 день 13 часов)

[Цитировать]

обновите, пожалуйста, торрент
[Профиль] [ЛС]

dusy78 ®

Стаж: 3 года 10 месяцев

Сообщений: 1005

Откуда: Россия

Пост 13-Окт-2014 14:56 (спустя 9 часов)

[Цитировать]

Добавлена 10 заключительная серия!
[Профиль] [ЛС]

Tainted-love

Стаж: 2 года 11 месяцев

Сообщений: 1180

Пост 13-Окт-2014 17:34 (спустя 2 часа 37 минут)

[Цитировать]

Очень... очень... поздравляю... спасибо огромное!
[Профиль] [ЛС]

Евгений Н.

Стаж: 2 года

Сообщений: 15

Откуда: Волгоград

Пост 28-Ноя-2014 23:09 (спустя 1 месяц 15 дней)

[Цитировать]

Спасибо,за ценим сериал. ay

_________________
[Профиль] [ЛС]
Показать сообщения:    
Ответить на тему

Текущее время: Сегодня 02:03

Часовой пояс: GMT



Вы не можете начинать темы
Вы не можете отвечать на сообщения
Вы не можете редактировать свои сообщения
Вы не можете удалять свои сообщения
Вы не можете голосовать в опросах
Вы не можете прикреплять файлы к сообщениям
Вы не можете скачивать файлы