Жалобы на работу трекера ! прошу сюда :)

Лучшая свадьба / Лучший брак / Величайшая свадьба / Великая свадьба / The Greatest Wedding / Choigoui Gyeolhon / The Greatest Marriage [16/16] [О Чжон Рок / Ко Юн Хи] [2014 г., романтика, комедия, драма] [360р] VO GREEN TEA

Страницы :  1, 2, 3, 4, 5  След.

Ответить на тему
 
Автор Сообщение

dusy78 ®

Стаж: 3 года 10 месяцев

Сообщений: 1005

Откуда: Россия

Пост 01-Окт-2014 14:22

[Цитировать]

Лучшая свадьба
Лучший брак / Величайшая свадьба / Великая свадьба
The Greatest Wedding / Choigoui Gyeolhon / The Greatest Marriage

Год выпуска: 2014
Страна: Южная Корея
Жанр: романтика, комедия, драма
Продолжительность: 16/16
Озвучивание: Анастасия Романова
СЕМПЛ:https://yadi.sk/i/EEADbLcObyHBL
Режиссер: О Чжон Рок
В ролях:
Пак Си Юн - Cha Gi Young,
Пэ Су Бин - Jo Eun Cha,
Но Мин У - Park Tae Yun,
Ом Хён Гён - Hyun Myung Yi
Описание: Дорама повествует об отношениях между четырмя разными парами, чьи истории сосредоточены вокруг женщины, которая после череды неудачных любовных романов решила стать матерью одиночкой.
Доп. информация:
Перевод: фсг "Мания"
Релиз группы GREEN TEA
Оформление постера: Елена Горборукова
Работа со звуком: Ольга Гринтиева
Формат: AVI
Видео кодек: XviD
Аудио кодек: MP3
Видео: 624x352, ~1400 Кбит/с, 29.97 fps
Аудио: 192 Кбит/с, 48.0 КHz, 2 канала
Альтернативная раздача 1280х720
ОСТ к дораме Лучшая свадьба

MediaInfo

General
Complete name : J:\Рабочая для текущих релизов\Лучшая свадьба\[GREEN TEA] Лучшая свадьба (360)\[GREEN TEA] Лучшая свадьба 01_360р.avi
Format : AVI
Format/Info : Audio Video Interleave
File size : 700 MiB
Duration : 1h 0mn
Overall bit rate : 1 606 Kbps
Writing application : Lavf54.63.104
Video
ID : 0
Format : xvid
Codec ID : xvid
Duration : 1h 0mn
Bit rate : 1 400 Kbps
Width : 624 pixels
Height : 352 pixels
Display aspect ratio : 16:9
Frame rate : 29.970 fps
Bits/(Pixel*Frame) : 0.213
Stream size : 611 MiB (87%)
Audio
ID : 1
Format : MPEG Audio
Format version : Version 1
Format profile : Layer 3
Mode : Joint stereo
Codec ID : 55
Codec ID/Hint : MP3
Duration : 1h 0mn
Bit rate mode : Constant
Bit rate : 192 Kbps
Channel(s) : 2 channels
Sampling rate : 48.0 KHz
Compression mode : Lossy
Stream size : 83.7 MiB (12%)
Alignment : Aligned on interleaves
Interleave, duration : 24 ms (0.72 video frame)
Добавлены 14-16 серии!


Последний раз редактировалось: dusy78 (2015-01-13 01:45), всего редактировалось 13 раз(а)
[Профиль] [ЛС]

Tainted-love

Стаж: 2 года 11 месяцев

Сообщений: 1180

Пост 02-Окт-2014 16:18 (спустя 1 день 1 час)

[Цитировать]

Отлично! А вот и размерчик поменьше... спасибо!
[Профиль] [ЛС]

dusy78 ®

Стаж: 3 года 10 месяцев

Сообщений: 1005

Откуда: Россия

Пост 03-Окт-2014 17:38 (спустя 1 день 1 час)

[Цитировать]

Добавлена 2 серия!
[Профиль] [ЛС]

Tainted-love

Стаж: 2 года 11 месяцев

Сообщений: 1180

Пост 03-Окт-2014 19:52 (спустя 2 часа 14 минут)

[Цитировать]

Спасибо большое! Очень оперативно... спасибо!
[Профиль] [ЛС]

Tainted-love

Стаж: 2 года 11 месяцев

Сообщений: 1180

Пост 05-Окт-2014 21:11 (спустя 2 дня 1 час)

[Цитировать]

В этом сериале снимается Но Мин У ... буду ждать с нетерпением окончания проекта.
[Профиль] [ЛС]

rodqer

Стаж: 3 года 10 месяцев

Сообщений: 417

Откуда: кемерово

Пост 09-Окт-2014 13:28 (спустя 3 дня)

[Цитировать]

спасибо огромное))))))))))))))
[Профиль] [ЛС]

Tainted-love

Стаж: 2 года 11 месяцев

Сообщений: 1180

Пост 11-Окт-2014 16:34 (спустя 2 дня 3 часа)

[Цитировать]

Это платный проект?
[Профиль] [ЛС]

dusy78 ®

Стаж: 3 года 10 месяцев

Сообщений: 1005

Откуда: Россия

Пост 11-Окт-2014 17:05 (спустя 31 минута)

[Цитировать]

Tainted-love, вот Таблица платных проектов группы
[Профиль] [ЛС]

Tainted-love

Стаж: 2 года 11 месяцев

Сообщений: 1180

Пост 11-Окт-2014 18:47 (спустя 1 час 41 минута)

[Цитировать]

Спасибо за информацию...мне все понятно.
[Профиль] [ЛС]

Tainted-love

Стаж: 2 года 11 месяцев

Сообщений: 1180

Пост 14-Окт-2014 06:40 (спустя 2 дня 11 часов)

[Цитировать]

Овучено уже четыре серии, а здесь не выложено...
[Профиль] [ЛС]

Tainted-love

Стаж: 2 года 11 месяцев

Сообщений: 1180

Пост 14-Окт-2014 21:11 (спустя 14 часов)

[Цитировать]

Так как на счет... еще двух серий?
[Профиль] [ЛС]

dusy78 ®

Стаж: 3 года 10 месяцев

Сообщений: 1005

Откуда: Россия

Пост 15-Окт-2014 07:20 (спустя 10 часов)

[Цитировать]

Добавлены 3-4 серии!
[Профиль] [ЛС]

Tainted-love

Стаж: 2 года 11 месяцев

Сообщений: 1180

Пост 15-Окт-2014 20:12 (спустя 12 часов)

[Цитировать]

Спасибо... спасибо... очень спасибо.
[Профиль] [ЛС]

Tainted-love

Стаж: 2 года 11 месяцев

Сообщений: 1180

Пост 16-Окт-2014 18:51 (спустя 22 часа)

[Цитировать]

Очень хочу эту дорамку в свою коллекцию... ведь здесь играет Но Мин У.
[Профиль] [ЛС]

Tainted-love

Стаж: 2 года 11 месяцев

Сообщений: 1180

Пост 22-Окт-2014 16:38 (спустя 5 дней)

[Цитировать]

Здесь нет пятой серии, а в другом размере есть... добавьте пожалуйста.
[Профиль] [ЛС]
Показать сообщения:    
Ответить на тему

Текущее время: Сегодня 14:06

Часовой пояс: GMT



Вы не можете начинать темы
Вы не можете отвечать на сообщения
Вы не можете редактировать свои сообщения
Вы не можете удалять свои сообщения
Вы не можете голосовать в опросах
Вы не можете прикреплять файлы к сообщениям
Вы не можете скачивать файлы