Жалобы на работу трекера ! прошу сюда :)

Искушение (Приманка) / Yoohok / Temptation [20/20] (Пак Ён Су) [2014, мелодрама, HDRip] [360p] VO GREEN TEA

Страницы :  1, 2, 3, 4  След.

Ответить на тему
 
Автор Сообщение

Klёпa ®

Стаж: 3 года 1 месяц

Сообщений: 906

Пост 04-Окт-2014 17:15

[Цитировать]

Искушение (Приманка)
Yoohok / Temptation


Год выпуска: 2014
Страна: Южная Корея
Жанр: мелодрама
Продолжительность: 20 серий по ~ 60 мин.
Серий: 1-20 (20)-Озвучивание: Одноголосое (закадровое) Ольга Гринтиева
Сэмпл: https://yadi.sk/d/hTjQBzI9bpL9G-Режиссер: Пак Ён Су (Park Young Soo / 박영수)
Сценарист: Хан Джи Хун (Han Ji Hoon / 한지훈)
В ролях:
Квон Сан У (Kwon Sang Woo / 권상우) - Чха Сок Хун
Чхве Чжи У (Choi Ji Woo / 최지우) - Ю Се Ён
Ли Чжон Чжин (Lee Jung Jin / 이정진) - Кан Мин У
Пак Ха Сон (Park Ha Sun / 박하선) - На Хон Чжу
Юн А Чжон (Yoon Ah Jung / 윤아정) - Хан Чжи Сон
Ли Джон Шин (Lee Jung Shin / 이정신) - На Хон Гю
Ким Со Ён (Kim So Young / 김소영) - Ю Се Джин
Хон Ё Джин (Hong Yeo Jin / 홍여진) - Чжон Юн Сок
Ким Тхэ Хун (Kim Tae Hoon / 김태훈) - Чжо Ён Чхоль
Чхве Иль Хва (Choi Il Hwa / 최일화) - На Си Чхан
и др.-Описание:
Главный герой - женатый мужчина, которому срочно нужно расплатиться с долгами. Одна женщина одалживает ему несколько миллиардов вон и в обмен на деньги получает его в своё полное распоряжение...
Актеры Квон Сан У и Чхве Чжи У воссоединились спустя 11 лет после их первой драмы вместе, "Лестница в небо".-Доп. информация:
Релиз группы "GREEN TEA"
Перевод: фансаб-группа "МАНИЯ"
Тайминг: Александр Изюмский (1 серия), Эльза Шапарелли (4 серия), Геннадий Дахно (2-3 и с 5 серии)
Работа со звуком: Екатерина Юрьева
Оформление постера: Елена Горборукова
Озвучивается при поддержке зрителей GREEN TEA-Качество: HDRip
Формат: AVI
Видео кодек: XviD
Аудио кодек: MP3
Видео: 624х352, ~1260 Кбит/с, 29.970 fps
Аудио: 48 kHz, 192 Кбит/c, 2 канала
ОСТ к дораме Искушение
!!! Альтернативная раздача: 720p (AVI, H264)28.12.2014 - добавлена 20 серия (заключительная).

MediaInfo

Код:
General
Complete name                            : [GREEN TEA] Temptation_E01.avi
Format                                   : AVI
Format/Info                              : Audio Video Interleave
File size                                : 619 MiB
Duration                                 : 59mn 12s
Overall bit rate                         : 1 463 Kbps
Movie name                               : Искушение / Temptation (2014)
Writing application                      : VirtualDubMod 1.5.10.2 (build 2542/release)
Writing library                          : VirtualDubMod build 2542/release
Video
ID                                       : 0
Format                                   : MPEG-4 Visual
Format profile                           : Advanced Simple@L5
Format settings, BVOP                    : 2
Format settings, QPel                    : No
Format settings, GMC                     : No warppoints
Format settings, Matrix                  : Default (MPEG)
Codec ID                                 : XVID
Codec ID/Hint                            : XviD
Duration                                 : 59mn 12s
Bit rate                                 : 1 259 Kbps
Width                                    : 624 pixels
Height                                   : 352 pixels
Display aspect ratio                     : 16:9
Frame rate                               : 29.970 fps
Color space                              : YUV
Chroma subsampling                       : 4:2:0
Bit depth                                : 8 bits
Scan type                                : Progressive
Compression mode                         : Lossy
Bits/(Pixel*Frame)                       : 0.191
Stream size                              : 533 MiB (86%)
Writing library                          : XviD 1.2.1 (UTC 2008-12-04)
Audio
ID                                       : 1
Format                                   : MPEG Audio
Format version                           : Version 1
Format profile                           : Layer 3
Codec ID                                 : 55
Codec ID/Hint                            : MP3
Duration                                 : 59mn 12s
Bit rate mode                            : Constant
Bit rate                                 : 192 Kbps
Channel(s)                               : 2 channels
Sampling rate                            : 48.0 KHz
Compression mode                         : Lossy
Stream size                              : 81.3 MiB (13%)
Alignment                                : Aligned on interleaves
Interleave, duration                     : 33 ms (1.00 video frame)
Interleave, preload duration             : 504 ms
Title                                    : GREEN TEA VO

Скриншоты




Последний раз редактировалось: Klёпa (2014-12-28 21:01), всего редактировалось 14 раз(а)
[Профиль] [ЛС]

Tainted-love

Стаж: 2 года 11 месяцев

Сообщений: 1180

Пост 04-Окт-2014 19:42 (спустя 2 часа 27 минут)

[Цитировать]

О, размерчик поменьше... спасибо!
[Профиль] [ЛС]

Tainted-love

Стаж: 2 года 11 месяцев

Сообщений: 1180

Пост 13-Окт-2014 13:38 (спустя 8 дней)

[Цитировать]

Спасибо за вашу работу, а как на счет продолжения?
[Профиль] [ЛС]

Klёпa ®

Стаж: 3 года 1 месяц

Сообщений: 906

Пост 13-Окт-2014 14:30 (спустя 52 минуты)

[Цитировать]

Tainted-love, серия в работе.
[Профиль] [ЛС]

E2072

Стаж: 3 года 1 месяц

Сообщений: 120

Пост 14-Окт-2014 09:42 (спустя 19 часов)

[Цитировать]

Ждём продолжения) Спасибо за озвучку!
[Профиль] [ЛС]

Tainted-love

Стаж: 2 года 11 месяцев

Сообщений: 1180

Пост 14-Окт-2014 20:48 (спустя 11 часов)

[Цитировать]

Спасибо за то, что ответили... удачи в работе.
[Профиль] [ЛС]

Klёпa ®

Стаж: 3 года 1 месяц

Сообщений: 906

Пост 15-Окт-2014 16:22 (спустя 19 часов)

[Цитировать]

Добавлена 9 серия!
[Профиль] [ЛС]

Ная

Стаж: 2 года 7 месяцев

Сообщений: 206

Откуда: Россия

Пост 17-Окт-2014 10:00 (спустя 1 день 17 часов)

[Цитировать]

Спасибо БОЛЬШОЕ Ольге Гринтиевой и всем кто работает над этим ВЕЛИКОЛЕПНЫМ сериалом!!!
[Профиль] [ЛС]

Klёпa ®

Стаж: 3 года 1 месяц

Сообщений: 906

Пост 19-Окт-2014 15:08 (спустя 2 дня 5 часов)

[Цитировать]

Добавлена 10 серия!
[Профиль] [ЛС]

Tainted-love

Стаж: 2 года 11 месяцев

Сообщений: 1180

Пост 19-Окт-2014 19:31 (спустя 4 часа)

[Цитировать]

Спасибо огромное!!! Вы лучшие!!!
[Профиль] [ЛС]

Tainted-love

Стаж: 2 года 11 месяцев

Сообщений: 1180

Пост 01-Ноя-2014 19:54 (спустя 13 дней)

[Цитировать]

Я так понимаю скоро появится еще одна серия... удачи в работе.
[Профиль] [ЛС]

Klёпa ®

Стаж: 3 года 1 месяц

Сообщений: 906

Пост 05-Ноя-2014 21:42 (спустя 4 дня)

[Цитировать]

Добавлена 11 серия!
[Профиль] [ЛС]

Klёпa ®

Стаж: 3 года 1 месяц

Сообщений: 906

Пост 06-Ноя-2014 23:11 (спустя 1 день 1 час)

[Цитировать]

Добавлена 12 серия!
[Профиль] [ЛС]

Ланочка10_83

Стаж: 3 года 1 месяц

Сообщений: 131

Пост 07-Ноя-2014 03:37 (спустя 4 часа)

[Цитировать]

Спасибо :)
[Профиль] [ЛС]

Klёпa ®

Стаж: 3 года 1 месяц

Сообщений: 906

Пост 12-Ноя-2014 20:10 (спустя 5 дней)

[Цитировать]

Добавлена 13 серия!
[Профиль] [ЛС]
Показать сообщения:    
Ответить на тему

Текущее время: Сегодня 09:38

Часовой пояс: GMT



Вы не можете начинать темы
Вы не можете отвечать на сообщения
Вы не можете редактировать свои сообщения
Вы не можете удалять свои сообщения
Вы не можете голосовать в опросах
Вы не можете прикреплять файлы к сообщениям
Вы не можете скачивать файлы