Жалобы на работу трекера ! прошу сюда :)

Король отеля / Hotel King [32/32] (Kim Dae Jin) [2014 г., Романтика, драма, HDTVRip] [720] DVO GREEN TEA

Страницы :  1, 2, 3, 4  След.

Ответить на тему
 
Автор Сообщение

dusy78 ®

Стаж: 3 года 10 месяцев

Сообщений: 1005

Откуда: Россия

Пост 13-Окт-2014 10:37

[Цитировать]

Король отеля / Hotel King Год выпуска: 2014
Страна: Южная Корея
Жанр: Романтика, драма
Продолжительность: 32/32
Озвучивание: Айя Сона и Пётр Слепцов
СЕМПЛ:https://yadi.sk/i/mJjZ8eUSbyGfo
Режиссер: Kim Dae Jin
В ролях: Ли Дон Ук как Чха Чжэ Ван
Ли Да Хе как А Мо Нэ
Им Сыль Хё как Сон У Хён
Ван Чжи Хё как Сон Чэ Кён
Ли Док Хва как Ли Чжун Гу
Ким Хэ Сук как Пэк Ми Нё
Описание: Эта история любви между богатой наследницей, изо всех сил пытающейся спасти отель своего отца, единственный семизвездочный отель во всей Корее, и молодого директора, ненавидящего своего собственного отца, за то что тот еще в детстве бросил его.
Дорама рассказывает историю о богатой наследнице А Мо Нэ, прожившей всю жизнь в роскоши словно принцесса, но однажды лишившейся всего. Ужасная трагедия кардинально меняет ее жизнь и девушке приходится сделать все, на что она только способна, чтобы спасти доставшейся в наследство от отца отель. Они с главным директором отеля Чха Чжэ Ваном, холодным и сдержанным снаружи, но скрывающим все свои эмоции внутри, влюбляются друг в друга. Но А Мо Нэ не знает, что Чха Чжэ Ван начал работать в отеле, ради мести своему отцу, который еще в детстве бросил его вместе с матерью.
Перевод описания: KaR-A
Доп. информация:
Релиз группы: GREEN TEA
Перевод: ФСГ Мания
Координация проекта и работа со звуком: Ольга Гринтиева
Качество: HDTVRip
Формат: AVI
Видео кодек: H.264
Аудио кодек: MP3
Видео: 1280x720, 29.970 fps, ~ 3000 Kbps
Аудио: MP3, 2ch, 48.0 KHz, 192 Kbps
ОСТ к дораме Король отеля
!!! Альтернативная раздача: 360p (AVI, XviD)
Сериал озвучивается при поддержке зрителей GREEN TEA

Скриншоты

MediaInfo

General
Complete name : [Green tea] Hotel King_720_01.avi
Format : AVI
Format/Info : Audio Video Interleave
File size : 1.45 GiB
Duration : 1h 4mn
Overall bit rate : 3 226 Kbps
Writing application : VirtualDubMod 1.5.10.2 (build 2542/release)
Writing library : VirtualDubMod build 2542/release
Video
ID : 0
Format : AVC
Format/Info : Advanced Video Codec
Format profile : High@L4.1
Format settings, CABAC : Yes
Format settings, ReFrames : 4 frames
Codec ID : AVC1
Duration : 1h 4mn
Bit rate : 3 022 Kbps
Nominal bit rate : 2 100 Kbps
Width : 1 280 pixels
Height : 720 pixels
Display aspect ratio : 16:9
Frame rate : 29.970 fps
Color space : YUV
Chroma subsampling : 4:2:0
Bit depth : 8 bits
Scan type : Progressive
Bits/(Pixel*Frame) : 0.109
Stream size : 1.36 GiB (94%)
Writing library : x264 core 115 r2008kMod 4c552d8
Encoding settings : cabac=1 / ref=4 / deblock=1:0:0 / analyse=0x3:0x13 / me=umh / subme=7 / psy=1 / fade_compensate=0.00 / psy_rd=1.00:0.00 / mixed_ref=1 / me_range=16 / chroma_me=1 / trellis=1 / 8x8dct=1 / cqm=0 / deadzone=21,11 / fast_pskip=1 / chroma_qp_offset=-2 / threads=4 / sliced_threads=1 / slices=4 / nr=0 / decimate=1 / interlaced=0 / bluray_compat=0 / constrained_intra=0 / bframes=0 / weightp=2 / keyint=250 / keyint_min=25 / scenecut=40 / intra_refresh=0 / rc_lookahead=0 / rc=abr / mbtree=0 / bitrate=2100 / ratetol=1.0 / qcomp=0.60 / qpmin=10 / qpmax=51 / qpstep=4 / vbv_maxrate=3000 / vbv_bufsize=2000 / nal_hrd=none / ip_ratio=1.40 / aq=1:1.00
Audio
ID : 1
Format : MPEG Audio
Format version : Version 1
Format profile : Layer 3
Codec ID : 55
Codec ID/Hint : MP3
Duration : 1h 4mn
Bit rate mode : Constant
Bit rate : 192 Kbps
Channel(s) : 2 channels
Sampling rate : 48.0 KHz
Compression mode : Lossy
Stream size : 88.6 MiB (6%)
Alignment : Aligned on interleaves
Interleave, duration : 33 ms (1.00 video frame)
Interleave, preload duration : 504 ms
Добавлены 23-32 серии!


Последний раз редактировалось: dusy78 (2016-04-08 18:03), всего редактировалось 17 раз(а)
[Профиль] [ЛС]

Tainted-love

Стаж: 2 года 11 месяцев

Сообщений: 1180

Пост 13-Окт-2014 13:13 (спустя 2 часа 36 минут)

[Цитировать]

Поздравляю с началом... легкой вам озвучки!
[Профиль] [ЛС]

Klёпa

Стаж: 3 года 2 месяца

Сообщений: 906

Пост 13-Окт-2014 14:34 (спустя 1 час 21 минута)

[Цитировать]

Ура! Спасибо за возможность посмотреть не онлайн раздачу))
[Профиль] [ЛС]

rodqer

Стаж: 3 года 10 месяцев

Сообщений: 417

Откуда: кемерово

Пост 14-Окт-2014 15:45 (спустя 1 день 1 час)

[Цитировать]

спасибо
[Профиль] [ЛС]

dusy78 ®

Стаж: 3 года 10 месяцев

Сообщений: 1005

Откуда: Россия

Пост 17-Окт-2014 12:48 (спустя 2 дня 21 час)

[Цитировать]

Добавлена 2 серия!
[Профиль] [ЛС]

dusy78 ®

Стаж: 3 года 10 месяцев

Сообщений: 1005

Откуда: Россия

Пост 21-Окт-2014 13:30 (спустя 4 дня)

[Цитировать]

Добавлена 3 серия!
[Профиль] [ЛС]

Klёпa

Стаж: 3 года 2 месяца

Сообщений: 906

Пост 21-Окт-2014 13:43 (спустя 13 минут)

[Цитировать]

Спасибо за новую серию! bq
[Профиль] [ЛС]

Амальфи

Стаж: 3 года 10 месяцев

Сообщений: 264

Пост 31-Окт-2014 09:02 (спустя 9 дней)

[Цитировать]

Добавлена 4 серия!
[Профиль] [ЛС]

Амальфи

Стаж: 3 года 10 месяцев

Сообщений: 264

Пост 02-Ноя-2014 10:05 (спустя 2 дня 1 час)

[Цитировать]

Добавлена 5 серия!
[Профиль] [ЛС]

dusy78 ®

Стаж: 3 года 10 месяцев

Сообщений: 1005

Откуда: Россия

Пост 05-Ноя-2014 15:41 (спустя 3 дня)

[Цитировать]

Добавлена 6 серия!
[Профиль] [ЛС]

rodqer

Стаж: 3 года 10 месяцев

Сообщений: 417

Откуда: кемерово

Пост 11-Ноя-2014 02:27 (спустя 5 дней)

[Цитировать]

))))))))))))))))спасибки
[Профиль] [ЛС]

dusy78 ®

Стаж: 3 года 10 месяцев

Сообщений: 1005

Откуда: Россия

Пост 16-Ноя-2014 16:42 (спустя 5 дней)

[Цитировать]

Добавлена 7 серия!
[Профиль] [ЛС]

dusy78 ®

Стаж: 3 года 10 месяцев

Сообщений: 1005

Откуда: Россия

Пост 26-Ноя-2014 13:27 (спустя 9 дней)

[Цитировать]

Добавлена 8 серия!
[Профиль] [ЛС]

dusy78 ®

Стаж: 3 года 10 месяцев

Сообщений: 1005

Откуда: Россия

Пост 07-Дек-2014 18:15 (спустя 11 дней)

[Цитировать]

Добавлена 9 серия!
[Профиль] [ЛС]

Хиджиката Тоширо

Стаж: 3 года 9 месяцев

Сообщений: 54

Пост 10-Дек-2014 13:16 (спустя 2 дня 19 часов)

[Цитировать]

Спасибо ^^
[Профиль] [ЛС]
Показать сообщения:    
Ответить на тему

Текущее время: Сегодня 16:06

Часовой пояс: GMT



Вы не можете начинать темы
Вы не можете отвечать на сообщения
Вы не можете редактировать свои сообщения
Вы не можете удалять свои сообщения
Вы не можете голосовать в опросах
Вы не можете прикреплять файлы к сообщениям
Вы не можете скачивать файлы