Жалобы на работу трекера ! прошу сюда :)

Король отеля / Hotel King [32/32] (Kim Dae Jin) [2014 г., Романтика, драма, HDTVRip] [360p] DVO GREEN TEA

Страницы :  1, 2, 3  След.

Ответить на тему
 
Автор Сообщение

Nas ®

Стаж: 3 года 10 месяцев

Сообщений: 372

Пост 13-Окт-2014 18:21

[Цитировать]

Король отеля / Hotel King -Год выпуска: 2014
Страна: Южная Корея
Жанр: Романтика, драма
Продолжительность: 32/32
Озвучивание: Закадровое двуголосое Айя Сона и Пётр Слепцов-Режиссер: Kim Dae Jin
В ролях:
Ли Дон Ук как Чха Чжэ Ван
Ли Да Хе как А Мо Нэ
Им Сыль Хё как Сон У Хён
Ван Чжи Хё как Сон Чэ Кён
Ли Док Хва как Ли Чжун Гу
Ким Хэ Сук как Пэк Ми Нё
Описание: Эта история любви между богатой наследницей, изо всех сил пытающейся спасти отель своего отца, единственный семизвездочный отель во всей Корее, и молодого директора, ненавидящего своего собственного отца, за то что тот еще в детстве бросил его.
Дорама рассказывает историю о богатой наследнице А Мо Нэ, прожившей всю жизнь в роскоши словно принцесса, но однажды лишившейся всего. Ужасная трагедия кардинально меняет ее жизнь и девушке приходится сделать все, на что она только способна, чтобы спасти доставшейся в наследство от отца отель. Они с главным директором отеля Чха Чжэ Ваном, холодным и сдержанным снаружи, но скрывающим все свои эмоции внутри, влюбляются друг в друга. Но А Мо Нэ не знает, что Чха Чжэ Ван начал работать в отеле, ради мести своему отцу, который еще в детстве бросил его вместе с матерью.
Перевод описания: KaR-A-Доп. информация:
Релиз группы: GREEN TEA
Перевод: ФСГ Мания
Координация проекта и работа со звуком: Ольга Гринтиева
-Качество: HDTVRip
Формат: AVI
Видео кодек: XviD
Аудио кодек: MP3
Видео: 624x352, 29.970 fps, ~ 1449 Kbps
Аудио: MP3, 2ch, 48.0 KHz, 192 Kbps
ОСТ к дораме Король отеля
!!! Альтернативная раздача: 720p (AVI, HDTVRip)

MediaInfo

General
Complete name : G:\[GREEN TEA] Король отеля 360р\[GREEN TEA] Король отеля 01.avi
Format : AVI
Format/Info : Audio Video Interleave
File size : 763 MiB
Duration : 1h 4mn
Overall bit rate : 1 652 Kbps
Writing application : VirtualDubMod 1.5.10.2 (build 2540/release)
Writing library : VirtualDubMod build 2540/release
Video
ID : 0
Format : MPEG-4 Visual
Format profile : Advanced Simple@L5
Format settings, BVOP : No
Format settings, QPel : No
Format settings, GMC : No warppoints
Format settings, Matrix : Default (MPEG)
Codec ID : XVID
Codec ID/Hint : XviD
Duration : 1h 4mn
Bit rate : 1 449 Kbps
Width : 624 pixels
Height : 352 pixels
Display aspect ratio : 16:9
Frame rate : 29.970 fps
Color space : YUV
Chroma subsampling : 4:2:0
Bit depth : 8 bits
Scan type : Progressive
Compression mode : Lossy
Bits/(Pixel*Frame) : 0.220
Stream size : 669 MiB (88%)
Writing library : XviD 64
Audio
ID : 1
Format : MPEG Audio
Format version : Version 1
Format profile : Layer 3
Codec ID : 55
Codec ID/Hint : MP3
Duration : 1h 4mn
Bit rate mode : Constant
Bit rate : 192 Kbps
Channel(s) : 2 channels
Sampling rate : 48.0 KHz
Compression mode : Lossy
Stream size : 88.6 MiB (12%)
Alignment : Aligned on interleaves
Interleave, duration : 33 ms (1.00 video frame)
Interleave, preload duration : 504 ms

Скриншоты



Последний раз редактировалось: Nas (2014-12-07 17:52), всего редактировалось 4 раз(а)
[Профиль] [ЛС]

Tainted-love

Стаж: 2 года 11 месяцев

Сообщений: 1180

Пост 16-Окт-2014 18:29 (спустя 3 дня)

[Цитировать]

Ооо.. размер по меньше... спасибо.
[Профиль] [ЛС]

Tainted-love

Стаж: 2 года 11 месяцев

Сообщений: 1180

Пост 29-Окт-2014 19:19 (спустя 13 дней)

[Цитировать]

Судя по описанию дорамы главные герои брат и сестра. Или я не правильно поняла написанное?
[Профиль] [ЛС]

Tainted-love

Стаж: 2 года 11 месяцев

Сообщений: 1180

Пост 09-Ноя-2014 14:18 (спустя 10 дней)

[Цитировать]

Кто уже смотрел скажите пожалуйста.
[Профиль] [ЛС]

Klёпa

Стаж: 3 года 2 месяца

Сообщений: 906

Пост 09-Ноя-2014 17:30 (спустя 3 часа)

[Цитировать]

Кто уже смотрел скажите пожалуйста.
Обычно о таком не говорят в раздачах сериалов, которые ещё только выходят, иначе вся интрига пропадёт))
[Профиль] [ЛС]

Tainted-love

Стаж: 2 года 11 месяцев

Сообщений: 1180

Пост 09-Ноя-2014 17:40 (спустя 9 минут)

[Цитировать]

О вот как... тогда понятно.
[Профиль] [ЛС]

Klёпa

Стаж: 3 года 2 месяца

Сообщений: 906

Пост 09-Ноя-2014 19:53 (спустя 2 часа 12 минут)

[Цитировать]

Tainted-love, если хотите, могу вам в ЛС рассказать о всех "секретах" и поворотах сюжета)) Но будет ли Вам интересно после этого смотреть сериал?
[Профиль] [ЛС]

Tainted-love

Стаж: 2 года 11 месяцев

Сообщений: 1180

Пост 09-Ноя-2014 20:22 (спустя 28 минут)

[Цитировать]

Вы правы будет не интересно.
[Профиль] [ЛС]

Melind@

Стаж: 3 года 1 месяц

Сообщений: 79

Пост 10-Ноя-2014 02:04 (спустя 5 часов)

[Цитировать]

Спасибо за меньший размер :) Надеемся на обновление...
[Профиль] [ЛС]

Tainted-love

Стаж: 2 года 11 месяцев

Сообщений: 1180

Пост 13-Ноя-2014 21:54 (спустя 3 дня)

[Цитировать]

Присоединяюсь...
[Профиль] [ЛС]

Nas ®

Стаж: 3 года 10 месяцев

Сообщений: 372

Пост 21-Ноя-2014 12:47 (спустя 7 дней)

[Цитировать]

Добавлены 4-7 серии!
[Профиль] [ЛС]

Tainted-love

Стаж: 2 года 11 месяцев

Сообщений: 1180

Пост 21-Ноя-2014 15:27 (спустя 2 часа 40 минут)

[Цитировать]

Спасибо огромное... очень очень спасибо!!!
[Профиль] [ЛС]

Tainted-love

Стаж: 2 года 11 месяцев

Сообщений: 1180

Пост 03-Дек-2014 22:20 (спустя 12 дней)

[Цитировать]

Удачи в работе.
[Профиль] [ЛС]

Tainted-love

Стаж: 2 года 11 месяцев

Сообщений: 1180

Пост 07-Дек-2014 16:00 (спустя 3 дня)

[Цитировать]

Берегите свое здоровье... не болейте... удачи и... спасибо.
[Профиль] [ЛС]

Nas ®

Стаж: 3 года 10 месяцев

Сообщений: 372

Пост 07-Дек-2014 17:51 (спустя 1 час 50 минут)

[Цитировать]

Добавлены 8-9 серии!
[Профиль] [ЛС]
Показать сообщения:    
Ответить на тему

Текущее время: Сегодня 16:00

Часовой пояс: GMT



Вы не можете начинать темы
Вы не можете отвечать на сообщения
Вы не можете редактировать свои сообщения
Вы не можете удалять свои сообщения
Вы не можете голосовать в опросах
Вы не можете прикреплять файлы к сообщениям
Вы не можете скачивать файлы