Жалобы на работу трекера ! прошу сюда :)

Дьявольские деньги / Donui Hwashin / Incarnation of Money (Ю Ин Щик) [2013 г., романтика, комедия, TVRip] [24/24] [360] VO GREEN TEA

Страницы :  1, 2  След.

Ответить на тему
 
Автор Сообщение

dusy78 ®

Стаж: 3 года 10 месяцев

Сообщений: 1005

Откуда: Россия

Пост 15-Окт-2014 06:51

[Цитировать]

Дьявольские деньги
Donui Hwashin / Incarnation of Money

Год выпуска: 2013
Страна: Корея
Жанр: романтика, комедия
Продолжительность: 24/24
Озвучивание: Юля Вредная 01-07 серии
Людмила Линькова 08-24 серии
Режиссер: Ю Ин Щик
В ролях: Кан Чжи Хван - Ли Ча Дон
Пак Чжи Бин - Ли Ча Дон в юности
Хван Чжон Ым - Пок Чжэ Ин
Пак Сан Мин - Чжи Се Кван
О Юн А - Ын Би Рюн
Чхве Ё Чжин - Чон Чжи Ху
Ким Су Ми - Пок Хва Суль
Описание:
Богатые тоже плачут, и порою, очень горькими слезами. Жили спокойно финансовый воротила, на счету которого несметные богатства, его жена и сын. Но на чужие денежки всегда найдутся охотнички... И жизнь этой семьи внезапно оказывается разрушенной, погребенной под гнетом чужой зависти и алчности. Однажды у теплого огонька собралась некая дружная компания, состоящая из "любящей" любовницы этого самого воротилы, обиженного им в детстве "праведного мстителя", прокурора, и еще пары таких же "доброжелателей". И придумали они хитроумный план по экстренному обогащению, убивая сразу трех зайцев: заполучить денежки, уничтожая никому не нужного старикана, и убрать с дороги единственного наследника. На первый взгляд, план удался отлично...
Но ведь не всегда все идет по плану...И насмешница - судьба оставляет в живых единственного свидетеля, несчастную жертву этого дьявольского плана, Ли Кан Сока. Потеряв собственное имя, семью и память, он вырастает неплохим человеком, по иронии судьбы, заброшенным в самое логово преступников. Вспомнит ли все Ли Ча Дон? И сможет ли он восстановить справедливость, покарав разрушителей своей семьи? Его ждет много испытаний, взлетов и падений...
Вот об этом нам и расскажет эта потрясающе увлекательная дорама. (c) Алиненок86
Доп. информация:
Релиз подготовлен группой GREEN TEA
Русские субтитры фансаб-группы Bears
Работа со звуком Екатерина Юрьева 01-07 серии
Людмила Линькова 08-24 серии

Качество: TVRip
Формат: AVI
Видео кодек: XviD
Аудио кодек: MP3
Видео: 624x352, ~1400 Кбит/с, 29.97 fps
Аудио: 192 Кбит/с, 48.0 КHz, 2 канала
Альтернативная раздача 1280х720
ОСТ к дораме Дьявольские деньги

Скриншоты

MediaInfo

General
Complete name : J:\Рабочая для текущих релизов\Дьявольские деньги\[GREEN TEA] Дьявольские деньги (360)\[GREEN TEA] Дьявольские деньги_360_01.avi
Format : AVI
Format/Info : Audio Video Interleave
File size : 739 MiB
Duration : 1h 4mn
Overall bit rate : 1 605 Kbps
Writing application : Lavf54.63.104
Video
ID : 0
Format : xvid
Codec ID : xvid
Duration : 1h 4mn
Bit rate : 1 400 Kbps
Width : 624 pixels
Height : 352 pixels
Display aspect ratio : 16:9
Frame rate : 29.970 fps
Bits/(Pixel*Frame) : 0.213
Stream size : 645 MiB (87%)
Audio
ID : 1
Format : MPEG Audio
Format version : Version 1
Format profile : Layer 3
Mode : Joint stereo
Codec ID : 55
Codec ID/Hint : MP3
Duration : 1h 4mn
Bit rate mode : Constant
Bit rate : 192 Kbps
Channel(s) : 2 channels
Sampling rate : 48.0 KHz
Compression mode : Lossy
Stream size : 88.4 MiB (12%)
Alignment : Aligned on interleaves
Interleave, duration : 24 ms (0.72 video frame)


Последний раз редактировалось: dusy78 (2016-10-10 06:02), всего редактировалось 10 раз(а)
[Профиль] [ЛС]

Tainted-love

Стаж: 2 года 11 месяцев

Сообщений: 1180

Пост 09-Ноя-2014 14:48 (спустя 25 дней)

[Цитировать]

Оо... размерчик поменьше... спасибо огромное.
[Профиль] [ЛС]

dusy78 ®

Стаж: 3 года 10 месяцев

Сообщений: 1005

Откуда: Россия

Пост 12-Ноя-2014 16:30 (спустя 3 дня)

[Цитировать]

Добавлена 2 серия!
[Профиль] [ЛС]

dusy78 ®

Стаж: 3 года 10 месяцев

Сообщений: 1005

Откуда: Россия

Пост 24-Ноя-2014 03:34 (спустя 11 дней)

[Цитировать]

Добавлена 3 серия!
[Профиль] [ЛС]

Tainted-love

Стаж: 2 года 11 месяцев

Сообщений: 1180

Пост 24-Ноя-2014 08:46 (спустя 5 часов)

[Цитировать]

Спасибо огромное! Это просто здорово!!!
[Профиль] [ЛС]

dusy78 ®

Стаж: 3 года 10 месяцев

Сообщений: 1005

Откуда: Россия

Пост 16-Дек-2014 19:45 (спустя 22 дня)

[Цитировать]

Добавлена 4 серия!
[Профиль] [ЛС]

dusy78 ®

Стаж: 3 года 10 месяцев

Сообщений: 1005

Откуда: Россия

Пост 23-Дек-2014 04:13 (спустя 6 дней)

[Цитировать]

Добавлена 5 серия!
[Профиль] [ЛС]

dusy78 ®

Стаж: 3 года 10 месяцев

Сообщений: 1005

Откуда: Россия

Пост 05-Янв-2015 18:01 (спустя 13 дней)

[Цитировать]

Добавлена 6 серия!
[Профиль] [ЛС]

Malinka-kate09

Стаж: 3 года 8 месяцев

Сообщений: 6

Пост 05-Апр-2015 07:21 (спустя 2 месяца 30 дней)

[Цитировать]

проект заморожен?
[Профиль] [ЛС]

Tainted-love

Стаж: 2 года 11 месяцев

Сообщений: 1180

Пост 06-Апр-2015 12:58 (спустя 1 день 5 часов)

[Цитировать]

Мне тоже интересно.
[Профиль] [ЛС]

xxxxDreamxxxx

Стаж: 1 год 10 месяцев

Сообщений: 247

Откуда: Севастополь

Пост 23-Май-2015 16:38 (спустя 1 месяц 17 дней)

[Цитировать]

А дальше перевод ожидается или нет?

_________________
[Профиль] [ЛС]

Юлия1977

Стаж: 1 год 8 месяцев

Сообщений: 1

Пост 02-Окт-2015 21:34 (спустя 4 месяца 10 дней)

[Цитировать]

подскажите, а дальше озвучивать будите?
[Профиль] [ЛС]

dusy78 ®

Стаж: 3 года 10 месяцев

Сообщений: 1005

Откуда: Россия

Пост 03-Окт-2015 02:16 (спустя 4 часа)

[Цитировать]

Юлия1977, да будем )))) Группа начатые проекты завершает всегда, но к сожалению, иногда бывают задержки в работе
[Профиль] [ЛС]

roza23

Стаж: 7 месяцев 11 дней

Сообщений: 1

Пост 06-Май-2016 11:21 (спустя 7 месяцев 3 дня)

[Цитировать]

Спасибо!
Давненько не было новых серий... работа дальше возможна?
[Профиль] [ЛС]

dusy78 ®

Стаж: 3 года 10 месяцев

Сообщений: 1005

Откуда: Россия

Пост 06-Май-2016 12:00 (спустя 39 минут)

[Цитировать]

roza23, работа медленно, но идет. На трекере будет выложен по окончании всей озвучки ))
[Профиль] [ЛС]
Показать сообщения:    
Ответить на тему

Текущее время: Сегодня 10:31

Часовой пояс: GMT



Вы не можете начинать темы
Вы не можете отвечать на сообщения
Вы не можете редактировать свои сообщения
Вы не можете удалять свои сообщения
Вы не можете голосовать в опросах
Вы не можете прикреплять файлы к сообщениям
Вы не можете скачивать файлы