Жалобы на работу трекера ! прошу сюда :)

Кантабиле завтрашнего дня / Cantabile Tomorrow / Нэ Иль Кантабиле / Naeil's Cantabile [16/16] [Хан Сан У] [2014 г., комедия, лайв-экшн, музыкальный, романтика] [720р] DVO GREEN TEA

Страницы :  1, 2  След.

Ответить на тему
 
Автор Сообщение

Nas ®

Стаж: 3 года 10 месяцев

Сообщений: 372

Пост 16-Окт-2014 18:03

[Цитировать]

Кантабиле завтрашнего дня / Нэ Иль Кантабиле
Cantabile Tomorrow / Naeil's Cantabile
- Выпуск: 13.10.2014 г.
Время показа: Понедельник, Вторник.
Страна: Южная Корея
Жанр: комедия, лайв-экшн, музыкальный, романтика
Продолжительность: 16/16
-
Перевод: Двухголосый закадровый Анастасия Романова и Макс Коллапс
-
Режиссер: Хан Сан У
В ролях:
Чжу Вон в роли Чха Ю Чжина
Сим Ын Кён в роли Соль Нэ Иль
Ко Кён Пё в роли Ю Иль Рака
Пэ Мин Чжон в роли Чон Си Вон
Описание:
В основе дорамы лежит популярная японская манга Ниномии Томоко,
описывающая весёлую романтическую историю двух противоположностей.
Музыкальный гений-аккуратист и непредсказуемая грязнуля-пианистка. Судьба то и дело подкидывает им новые встречи, а тут ещё и разношёрстная группа талантливых музыкантов под руководством эксцентричного всемирно известного дирижёра.
Вместе они создадут свою неповторимую музыку.
Идти по жизни с юмором, не обращая внимание на предрассудки - их девиз.
Разные судьбы и характеры, пройдёт немало времени, прежде чем они смогут стать одним целым.
Перевод описания: Anuksanamun
-
Доп. информация:
Перевод: фсг "Мания"
Релиз группы GREEN TEA
Тайминг: Разифат Асланова
Оформление постера и работа со звуком: Ольга Гринтиева
-Формат: AVI
Видео кодек: H264
Аудио кодек: MP3
Видео: 1280/720 pixels, 29.970 fps, 16:9, 2 523 Kbps
Аудио: 192 Kbps, 2 channels, 48.0 KHz
Альтернативная раздача 624х352
ОСТ к дораме Кантабиле завтрашнего дня

MediaInfo

General
Complete name : G:\[GREEN TEA] Кантабиле завтрашнего дня 720р\[GREEN TEA] Кантабиле завтрашнего дня 01.avi
Format : AVI
Format/Info : Audio Video Interleave
File size : 1.12 GiB
Duration : 59mn 1s
Overall bit rate : 2 727 Kbps
Writing application : VirtualDubMod 1.5.10.2 (build 2540/release)
Writing library : VirtualDubMod build 2540/release
Video
ID : 0
Format : AVC
Format/Info : Advanced Video Codec
Format profile : High@L3.1
Format settings, CABAC : No
Format settings, ReFrames : 1 frame
Codec ID : H264
Duration : 59mn 1s
Bit rate : 2 523 Kbps
Nominal bit rate : 2 916 Kbps
Width : 1 280 pixels
Height : 720 pixels
Display aspect ratio : 16:9
Frame rate : 29.970 fps
Color space : YUV
Chroma subsampling : 4:2:0
Bit depth : 8 bits
Scan type : Progressive
Bits/(Pixel*Frame) : 0.091
Stream size : 1.04 GiB (93%)
Writing library : x264 core 116 r2057kMod 0ba8a9c
Encoding settings : cabac=0 / ref=1 / deblock=1:0:0 / analyse=0x3:0x13 / me=umh / subme=7 / psy=1 / fade_compensate=0.00 / psy_rd=1.00:0.00 / mixed_ref=0 / me_range=16 / chroma_me=1 / trellis=1 / 8x8dct=1 / cqm=0 / deadzone=21,11 / fast_pskip=1 / chroma_qp_offset=-2 / threads=4 / sliced_threads=1 / slices=4 / nr=0 / decimate=1 / interlaced=0 / bluray_compat=0 / constrained_intra=0 / bframes=0 / weightp=2 / keyint=250 / keyint_min=25 / scenecut=40 / intra_refresh=0 / rc=abr / mbtree=0 / bitrate=2916 / ratetol=1.0 / qcomp=0.60 / qpmin=10 / qpmax=51 / qpstep=4 / ip_ratio=1.40 / aq=1:1.00
Audio
ID : 1
Format : MPEG Audio
Format version : Version 1
Format profile : Layer 3
Codec ID : 55
Codec ID/Hint : MP3
Duration : 59mn 1s
Bit rate mode : Constant
Bit rate : 192 Kbps
Channel(s) : 2 channels
Sampling rate : 48.0 KHz
Compression mode : Lossy
Stream size : 81.1 MiB (7%)
Alignment : Aligned on interleaves
Interleave, duration : 33 ms (1.00 video frame)
Interleave, preload duration : 504 ms

Скриншоты



Последний раз редактировалось: Nas (2015-09-22 12:37), всего редактировалось 6 раз(а)
[Профиль] [ЛС]

Ланочка10_83

Стаж: 3 года 1 месяц

Сообщений: 131

Пост 17-Окт-2014 02:02 (спустя 7 часов)

[Цитировать]

Ухты!:) Спасибо большое!!!!! :)
[Профиль] [ЛС]

Tainted-love

Стаж: 2 года 11 месяцев

Сообщений: 1180

Пост 17-Окт-2014 07:39 (спустя 5 часов)

[Цитировать]

А поменьше размерчик возможен?
[Профиль] [ЛС]

Klёпa

Стаж: 3 года 2 месяца

Сообщений: 906

Пост 17-Окт-2014 09:22 (спустя 1 час 43 минуты)

[Цитировать]

Tainted-love, возможен))
[Профиль] [ЛС]

j_777

Стаж: 3 года 9 месяцев

Сообщений: 302

Пост 17-Окт-2014 11:01 (спустя 1 час 38 минут)

[Цитировать]

Давно ждала эту дорамку. Спасибо, что взялись ее озвучивать. Легкой и быстрой вам озвучки!
[Профиль] [ЛС]

Лараллейн

Стаж: 3 года

Сообщений: 13

Пост 17-Окт-2014 16:27 (спустя 5 часов)

[Цитировать]

Аниме потрясающее, посмотрим каким будет воплощение в дораме. Спасибо за Вашу озвучку)
[Профиль] [ЛС]

zhenya.ka

Стаж: 3 года 1 месяц

Сообщений: 1

Пост 18-Окт-2014 20:55 (спустя 1 день 4 часа)

[Цитировать]

так то японская есть, Штресеманн вообще убил с пивком в пакетике, в японской то же был фрик, но корейцы переплюнули
[Профиль] [ЛС]

Амальфи

Стаж: 3 года 10 месяцев

Сообщений: 264

Пост 22-Окт-2014 16:24 (спустя 3 дня)

[Цитировать]

Добавлена 2 серия!
[Профиль] [ЛС]

dusy78

Стаж: 3 года 10 месяцев

Сообщений: 1005

Откуда: Россия

Пост 23-Окт-2014 11:58 (спустя 19 часов)

[Цитировать]

Маленькая раздача http://tracker.green-tea.tv/viewtopic.php?t=893
[Профиль] [ЛС]

Nas ®

Стаж: 3 года 10 месяцев

Сообщений: 372

Пост 29-Окт-2014 11:18 (спустя 5 дней)

[Цитировать]

Добавлена 3 серия!
[Профиль] [ЛС]

Nas ®

Стаж: 3 года 10 месяцев

Сообщений: 372

Пост 01-Ноя-2014 21:04 (спустя 3 дня)

[Цитировать]

Добавлена 4 серия!
[Профиль] [ЛС]

Nas ®

Стаж: 3 года 10 месяцев

Сообщений: 372

Пост 04-Ноя-2014 20:45 (спустя 2 дня 23 часа)

[Цитировать]

Добавлена 5 серия!
[Профиль] [ЛС]

rodqer

Стаж: 3 года 10 месяцев

Сообщений: 417

Откуда: кемерово

Пост 11-Ноя-2014 02:25 (спустя 6 дней)

[Цитировать]

спасибо огромное
[Профиль] [ЛС]

micola777

Стаж: 2 года 10 месяцев

Сообщений: 2

Пост 05-Дек-2014 16:08 (спустя 24 дня)

[Цитировать]

Эх, 6 серию бы добавили бы.
[Профиль] [ЛС]

lina221

Стаж: 3 года 1 месяц

Сообщений: 6

Пост 13-Дек-2014 17:35 (спустя 8 дней)

[Цитировать]

Сериал забросили?
[Профиль] [ЛС]
Показать сообщения:    
Ответить на тему

Текущее время: Сегодня 18:39

Часовой пояс: GMT



Вы не можете начинать темы
Вы не можете отвечать на сообщения
Вы не можете редактировать свои сообщения
Вы не можете удалять свои сообщения
Вы не можете голосовать в опросах
Вы не можете прикреплять файлы к сообщениям
Вы не можете скачивать файлы