Жалобы на работу трекера ! прошу сюда :)

Чо Ён - детектив, видящий призраков / Gwishinboneun Hyungsa, Cheo Yong / The Ghost-Seeing Detective Cheo Yong [10/10] [2014, мистика, детектив, боевик, HDRip] [RAW] [360p] DVO GREEN TEA

Ответить на тему
 
Автор Сообщение

Klёпa ®

Стаж: 3 года 2 месяца

Сообщений: 906

Пост 16-Окт-2014 22:26

[Цитировать]

Чо Ён - Детектив, видящий призраков
Gwishinboneun Hyungsa, Cheo Yong / The Ghost-Seeing Detective Cheo Yong

-
Год выпуска: 2014
Страна: Южная Корея
Жанр: Мистика, детектив, боевик
Продолжительность: 10 серий по 60-65 мин.
Серий: 10/10-Перевод двухголосый (закадровый): Анастасия Романова и Игорь Николаенков
Сэмпл: https://yadi.sk/-Режиссер: Им Чан Ик (Im Chan Ik / 임찬익)
В ролях:
О Чжи Хо (Oh Ji Ho / 오지호) - Чо Ён
О Чжи Ын (Oh Ji Eun / 오지은) - Сон У
Чжон Хё Сон (Jun Hyo Sung / 전효성) - На Ён
Чон Чжи Ан (Jun Ji Ahn / 전지안) - Ким Хэ Сон
Ю Мин Кю (Yoo Min Kyu / 유민규) - Пак Мин Дже
Ю Сын Мок (Yoo Seung Mok / 유승목) - Пён Гук Джин
Юн Чжэ Ук (Yun Je Wook / 연제욱) - Ли Чжон Хён
и др.-Описание:
О Чжи Хо сыграет детектива, который потерял свою семью и любимую в ужасном происшествии. После этих событий его героя переводят из отдела особо тяжких преступлений в региональное отделение на позицию рядового детектива. Он полностью отрезан от мира, если не считать его работу и врожденную способность видеть, слышать и касаться призраков. Однажды он начинает разговор с призраком школьницы, которая преследует его (ее сыграет Чжон Хё Сон из девичьей группы Secret). Именно разговор с мёртвыми возвращает героя к жизни. Со своей напарницей (О Чжи Ын) он начинает работать над таинственными делами, используя "подсказки мёртвых", которые те оставляют после себя.
О Чжи Ын сыграет детектива регионального отдела расследований, которая славится своим упорством. Она очень внимательна к деталям, что просто неоценимо в определении слабых мест противника, а также помогает в её непосредственной деятельности - реконструкции мест преступлений. Она столь настойчива с своём желании закрыть дело, что многие коллеги не могут с ней сработаться.-Доп. информация:
Релиз подготовлен группой GREEN TEA
Перевод: фсг "Beloved Onnies"
Оформление постера: Дина Фаткуллина
Работа со звуком: Ольга Гринтиева
ОЗВУЧИВАЕТСЯ ПРИ ПОДДЕРЖКЕ ЗРИТЕЛЕЙ GREEN TEA-Качество: HDRip
Формат: AVI
Видео кодек: XviD
Аудио кодек: MP3
Видео: 624х352, ~1350 Кбит/с, 29.970 fps
Аудио: 48 kHz, 192 Кбит/c, 2 канала
ОСТ к дораме Чо Ён - детектив, видящий призраков
!!! Альтернативная раздача: 720p (AVI, H264)03.01.2015 - добавлена 10 серия.

MediaInfo

Код:
General
Format                                   : AVI
Format/Info                              : Audio Video Interleave
File size                                : 630 MiB
Duration                                 : 56mn 45s
Overall bit rate                         : 1 551 Kbps
Writing application                      : VirtualDubMod 1.5.10.2 (build 2542/release)
Writing library                          : VirtualDubMod build 2542/release
Video
ID                                       : 0
Format                                   : MPEG-4 Visual
Format profile                           : Advanced Simple@L5
Format settings, BVOP                    : 2
Format settings, QPel                    : No
Format settings, GMC                     : No warppoints
Format settings, Matrix                  : Default (MPEG)
Codec ID                                 : XVID
Codec ID/Hint                            : XviD
Duration                                 : 56mn 44s
Bit rate                                 : 1 350 Kbps
Width                                    : 624 pixels
Height                                   : 352 pixels
Display aspect ratio                     : 16:9
Frame rate                               : 23.976 fps
Color space                              : YUV
Chroma subsampling                       : 4:2:0
Bit depth                                : 8 bits
Scan type                                : Progressive
Compression mode                         : Lossy
Bits/(Pixel*Frame)                       : 0.256
Stream size                              : 548 MiB (87%)
Writing library                          : XviD 1.2.1 (UTC 2008-12-04)
Audio
ID                                       : 1
Format                                   : MPEG Audio
Format version                           : Version 1
Format profile                           : Layer 3
Codec ID                                 : 55
Codec ID/Hint                            : MP3
Duration                                 : 56mn 45s
Bit rate mode                            : Constant
Bit rate                                 : 192 Kbps
Channel(s)                               : 2 channels
Sampling rate                            : 48.0 KHz
Compression mode                         : Lossy
Stream size                              : 77.9 MiB (12%)
Alignment                                : Aligned on interleaves
Interleave, duration                     : 42 ms (1.00 video frame)
Interleave, preload duration             : 504 ms
Title                                    : GREEN TEA DVO

Скриншоты




Последний раз редактировалось: Klёпa (2015-01-03 02:28), всего редактировалось 2 раз(а)
[Профиль] [ЛС]

Tainted-love

Стаж: 2 года 11 месяцев

Сообщений: 1180

Пост 17-Окт-2014 07:39 (спустя 9 часов)

[Цитировать]

Спасибо огромное!
[Профиль] [ЛС]

Katherine

Стаж: 3 года 10 месяцев

Сообщений: 48

Пост 18-Окт-2014 13:37 (спустя 1 день 5 часов)

[Цитировать]

Ура, раздача позолотела! Спасибо, качаю!)

_________________
[Профиль] [ЛС]

Klёпa ®

Стаж: 3 года 2 месяца

Сообщений: 906

Пост 11-Ноя-2014 06:07 (спустя 23 дня)

[Цитировать]

Добавлена 7 серия!
[Профиль] [ЛС]

j_777

Стаж: 3 года 9 месяцев

Сообщений: 302

Пост 11-Ноя-2014 11:59 (спустя 5 часов)

[Цитировать]

Спасибо за новую серию!
[Профиль] [ЛС]

Klёпa ®

Стаж: 3 года 2 месяца

Сообщений: 906

Пост 03-Янв-2015 02:29 (спустя 1 месяц 21 день)

[Цитировать]

Добавлена 8 серия!
[Профиль] [ЛС]

nuranura

Стаж: 3 года 1 месяц

Сообщений: 142

Пост 05-Июл-2015 19:52 (спустя 6 месяцев 2 дня)

[Цитировать]

обновите пожалуйста и здесь раздачу
[Профиль] [ЛС]

dusy78

Стаж: 3 года 10 месяцев

Сообщений: 1005

Откуда: Россия

Пост 12-Июл-2015 08:11 (спустя 6 дней)

[Цитировать]

Добавлены 9-10 серии!
[Профиль] [ЛС]

Katherine

Стаж: 3 года 10 месяцев

Сообщений: 48

Пост 14-Июл-2015 12:37 (спустя 2 дня 4 часа)

[Цитировать]

Добавлены 9-10 серии!
спасибо)

_________________
[Профиль] [ЛС]

SolaryO

Стаж: 3 года 9 месяцев

Сообщений: 2

Пост 28-Авг-2015 17:25 (спустя 1 месяц 14 дней)

[Цитировать]

спасибо, смотрела в вашей озвучке как всегда получила огромнейшее удовольствие, вопрос только в одном, будет ли озвучка второго сезона?
[Профиль] [ЛС]

Ная

Стаж: 2 года 7 месяцев

Сообщений: 206

Откуда: Россия

Пост 29-Авг-2015 01:00 (спустя 7 часов)

[Цитировать]

вопрос только в одном, будет ли озвучка второго сезона?
Заявка уже есть.
Кто готов поддержать, пожалуйста, отписывайтесь http://tracker.green-tea.tv/viewtopic.php?t=1301
[Профиль] [ЛС]
Показать сообщения:    
Ответить на тему

Текущее время: Сегодня 22:09

Часовой пояс: GMT



Вы не можете начинать темы
Вы не можете отвечать на сообщения
Вы не можете редактировать свои сообщения
Вы не можете удалять свои сообщения
Вы не можете голосовать в опросах
Вы не можете прикреплять файлы к сообщениям
Вы не можете скачивать файлы