Жалобы на работу трекера ! прошу сюда :)

Плохие парни / Bad Guys [11/11] (Ким Чон Мин) [2014, детектив, драма, HDTVRip] [720p] DVO GREEN TEA

Страницы :  1, 2, 3  След.

Ответить на тему
 
Автор Сообщение

Klёпa ®

Стаж: 3 года 2 месяца

Сообщений: 906

Пост 19-Окт-2014 17:07

[Цитировать]

Плохие парни
Bad Guys / Nappeun Nyeosukdeul


Год выпуска: 2014
Страна: Южная Корея
Жанр: криминал, триллер, экшн
Продолжительность: 11 серий по ~60 мин.
Серий: 07 (11)-Перевод:
закадровый (двухголосый) Константин Романов и Ольга Гринтиева
Сэмпл: https://yadi.sk/i/lS8YRg4Fc9Uv9
-Режиссер: Ким Чон Мин (Kim Jung Min / 김정민)
В ролях:
Пак Хэ Чжин (Park Hae Jin / 박해진)
Чо Дон Хёк (Jo Dong Hyuk / 조동혁)
Ким Сан Чжун (Kim Sang Joong / 김상중)
Ма Дон Сок (Ma Dong Suk / 마동석)
Кан Е Вон (Kang Ye Won / 강예원)
Ким Тхэ Хун (Kim Tae Hoon / 김태훈)
Хван Сын Он (Hwang Seung Eon / 황승언)
Кан Син Иль (Kang Shin Il / 강신일)
Мин Чжи А (Min Ji Ah / 민지아)
и др.
-Описание:
Для борьбы с преступлениями и для предовращения новых преступлений
полиция собирает особый отдел, состоящий из безжалостных социопатов.
-Доп. информация:
Релиз группы GREEN TEA
Перевод 1-3 серии: фансаб-группа "МАНИЯ"
Редактирование 2 серии: Арина Сан
С 3 серии перевод: Эльза Нордж (3 серия) далее Анна Окидзуке
Работа со звуком: Ольга Гринтиева
Тайминг: Геннадий Дахно
Оформление постера: Роман NovA_JKE-Качество: HDTVRip
Формат: AVI
Видео кодек: Р264
Аудио кодек: MP3
Видео: 1280х720, ~2500 Кбит/с, 29.97 fps
Аудио: 48 kHz, 192 Кбит/c, 2 канала
!!! Альтернативная раздача: 360p (AVI, XviD)
ОСТ к дораме Плохие парни

MediaInfo

Код:
General
Video
ID                                       : 0
Format                                   : AVC
Format/Info                              : Advanced Video Codec
Format profile                           : High@L3.1
Format settings, CABAC                   : No
Format settings, ReFrames                : 1 frame
Codec ID                                 : H264
Duration                                 : 57mn 52s
Bit rate                                 : 2 489 Kbps
Nominal bit rate                         : 2 916 Kbps
Width                                    : 1 280 pixels
Height                                   : 720 pixels
Display aspect ratio                     : 16:9
Frame rate                               : 29.970 fps
Color space                              : YUV
Chroma subsampling                       : 4:2:0
Bit depth                                : 8 bits
Scan type                                : Progressive
Bits/(Pixel*Frame)                       : 0.090
Stream size                              : 1.01 GiB (100%)
Writing library                          : x264 core 116 r2057kMod 0ba8a9c
Encoding settings                        : cabac=0 / ref=1 / deblock=1:0:0 / analyse=0x3:0x13 / me=umh / subme=7 / psy=1 / fade_compensate=0.00 / psy_rd=1.00:0.00 / mixed_ref=0 / me_range=16 / chroma_me=1 / trellis=1 / 8x8dct=1 / cqm=0 / deadzone=21,11 / fast_pskip=1 / chroma_qp_offset=-2 / threads=4 / sliced_threads=1 / slices=4 / nr=0 / decimate=1 / interlaced=0 / bluray_compat=0 / constrained_intra=0 / bframes=0 / weightp=2 / keyint=250 / keyint_min=25 / scenecut=40 / intra_refresh=0 / rc=abr / mbtree=0 / bitrate=2916 / ratetol=1.0 / qcomp=0.60 / qpmin=10 / qpmax=51 / qpstep=4 / ip_ratio=1.40 / aq=1:1.00
Audio
ID                                       : 1
Format                                   : MPEG Audio
Format version                           : Version 1
Format profile                           : Layer 3
Mode                                     : Joint stereo
Codec ID                                 : 55
Codec ID/Hint                            : MP3
Duration                                 : 58mn 34s
Bit rate mode                            : Constant
Bit rate                                 : 192 Kbps
Channel(s)                               : 2 channels
Sampling rate                            : 48.0 KHz
Compression mode                         : Lossy
Stream size                              : 80.4 MiB (13%)
Alignment                                : Split accross interleaves
Interleave, duration                     : 33 ms (1.00 video frame)
Interleave, preload duration             : 500 ms
Title                                    : GREEN TEA DVO

Скриншоты




Последний раз редактировалось: Klёпa (2014-10-20 21:20), всего редактировалось 5 раз(а)
[Профиль] [ЛС]

Katherine

Стаж: 3 года 10 месяцев

Сообщений: 48

Пост 19-Окт-2014 22:08 (спустя 5 часов)

[Цитировать]

Какая радость, что вы взялись за озвучку этого сериала, я целый месяц ждала его выхода!

_________________
[Профиль] [ЛС]

pandora2177

Стаж: 3 года 10 месяцев

Сообщений: 368

Пост 22-Окт-2014 10:20 (спустя 2 дня 12 часов)

[Цитировать]

Добавлена 2 серия!
[Профиль] [ЛС]

rodqer

Стаж: 3 года 10 месяцев

Сообщений: 417

Откуда: кемерово

Пост 11-Ноя-2014 02:24 (спустя 19 дней)

[Цитировать]

спасибо )))))))))))))))))))))))урааааа
[Профиль] [ЛС]

BOND_014

Стаж: 2 года 1 месяц

Сообщений: 16

Пост 17-Ноя-2014 16:13 (спустя 6 дней)

[Цитировать]

Что скажите насчет продолжения? Оно будет?
[Профиль] [ЛС]

x-nur

Стаж: 2 года 5 месяцев

Сообщений: 6

Пост 03-Дек-2014 18:15 (спустя 16 дней)

[Цитировать]

почему бросили озвучивание?
[Профиль] [ЛС]

end122

Стаж: 2 года 11 месяцев

Сообщений: 7

Пост 11-Дек-2014 09:36 (спустя 7 дней)

[Цитировать]

Извините пожалуйста за нескромный вопрос: А продолжения будет???? Спасибо
[Профиль] [ЛС]

Klёпa ®

Стаж: 3 года 2 месяца

Сообщений: 906

Пост 11-Дек-2014 23:48 (спустя 14 часов)

[Цитировать]

end122, будет, но не сразу по ряду объективных причин.
[Профиль] [ЛС]

pandora2177

Стаж: 3 года 10 месяцев

Сообщений: 368

Пост 13-Дек-2014 18:53 (спустя 1 день 19 часов)

[Цитировать]

Добавлена 3 серия!
[Профиль] [ЛС]

pandora2177

Стаж: 3 года 10 месяцев

Сообщений: 368

Пост 15-Дек-2014 21:11 (спустя 2 дня 2 часа)

[Цитировать]

Добавлена 4 серия!
[Профиль] [ЛС]

pandora2177

Стаж: 3 года 10 месяцев

Сообщений: 368

Пост 17-Дек-2014 20:32 (спустя 1 день 23 часа)

[Цитировать]

Добавлена 5 серия!
[Профиль] [ЛС]

x-nur

Стаж: 2 года 5 месяцев

Сообщений: 6

Пост 22-Дек-2014 19:56 (спустя 4 дня)

[Цитировать]

Тут: http://tracker.green-tea.tv/viewtopic.php?t=873, уже 6-серия есть, ждемс...)
[Профиль] [ЛС]

pandora2177

Стаж: 3 года 10 месяцев

Сообщений: 368

Пост 22-Дек-2014 22:57 (спустя 3 часа)

[Цитировать]

Добавлены 6 и 7 серии!
[Профиль] [ЛС]

svatrazum

Стаж: 2 года

Сообщений: 10

Пост 23-Дек-2014 13:42 (спустя 14 часов)

[Цитировать]

Здравствуйте! Благодарю за релиз!
Убедительная просьба заменить названия папки с "[GREEN TEA] Плохие парни" на "[GREEN TEA] Bad Guys (720)" с целью корректного размещения на других торрентах с сидами )
Благодарю за труды!

_________________
Подпись отключена за нарушение правил форума
[Профиль] [ЛС]

marianatm

Стаж: 1 год 11 месяцев

Сообщений: 1

Пост 28-Дек-2014 20:00 (спустя 5 дней)

[Цитировать]

8 seria gde???
[Профиль] [ЛС]
Показать сообщения:    
Ответить на тему

Текущее время: Сегодня 16:31

Часовой пояс: GMT



Вы не можете начинать темы
Вы не можете отвечать на сообщения
Вы не можете редактировать свои сообщения
Вы не можете удалять свои сообщения
Вы не можете голосовать в опросах
Вы не можете прикреплять файлы к сообщениям
Вы не можете скачивать файлы