Жалобы на работу трекера ! прошу сюда :)

Плохие парни / Bad Guys [11/11] (Ким Чон Мин) [2014, детектив, драма, HDRip] [360p] DVO GREEN TEA

Страницы :  1, 2  След.

Ответить на тему
 
Автор Сообщение

Klёпa ®

Стаж: 3 года 2 месяца

Сообщений: 906

Пост 20-Окт-2014 10:15

[Цитировать]

Плохие парни
Bad Guys / Nappeun Nyeosukdeul


Год выпуска: 2014
Страна: Южная Корея
Жанр: детектив, драма
Продолжительность: 11 серий по ~60 мин.
Серий: 1-11 (11)-Перевод:
закадровый (двухголосый) Константин Романов и Ольга Гринтиева
Сэмпл: https://yadi.sk/i/29nfa47Qc9Yem
-Режиссер: Ким Чон Мин (Kim Jung Min / 김정민)
В ролях:
Пак Хэ Чжин (Park Hae Jin / 박해진) - Ли Чжон Мун
Чо Дон Хёк (Jo Dong Hyuk / 조동혁) - Чжон Тхэ Су
Ким Сан Чжун (Kim Sang Joong / 김상중) - О Гу Так
Ма Дон Сок (Ma Dong Suk / 마동석) - Пак Ун Чхоль
Кан Е Вон (Kang Ye Won / 강예원) - Ю Ми Ён
Ким Тхэ Хун (Kim Tae Hoon / 김태훈)
Хван Сын Он (Hwang Seung Eon / 황승언) - Ян Ю Джин
Кан Син Иль (Kang Shin Il / 강신일) - Нам Гу Хён
Мин Чжи А (Min Ji Ah / 민지아) - Пак Сон Чжон
и др.
-Описание:
Для борьбы с преступлениями и для предовращения новых преступлений
полиция собирает особый отдел, состоящий из безжалостных социопатов.
-Доп. информация:
Релиз группы GREEN TEA
Перевод: фансаб-группа "МАНИЯ" (1-3 серии), Эльза Нордж (4 серия), Анна Окидзуке (с 5 серии)
Редактирование: Анна Окидзуке (1, 3 серии), Арина Сан (2 серия)
Тайминг: Геннадий Дахно
Работа со звуком: Ольга Гринтиева
Оформление постера: Роман NovA_JKE-Качество: HDRip
Формат: AVI
Видео кодек: XviD
Аудио кодек: MP3
Видео: 624х352, ~1250 Кбит/с, 29.97 fps
Аудио: 48 kHz, 192 Кбит/c, 2 канала
!!! Альтернативная раздача: 720p (AVI, H264)
ОСТ к дораме Плохие парни28.12.2014 - добавлены 9-11 серии (заключительные).

MediaInfo

Код:
General
Video
Format                                   : MPEG-4 Visual
Format profile                           : Advanced Simple@L5
Format settings, BVOP                    : 1
Format settings, QPel                    : No
Format settings, GMC                     : No warppoints
Format settings, Matrix                  : Default (MPEG)
Codec ID                                 : XVID
Codec ID/Hint                            : XviD
Duration                                 : 57mn 52s
Bit rate                                 : 1 295 Kbps
Width                                    : 624 pixels
Height                                   : 352 pixels
Display aspect ratio                     : 16:9
Frame rate                               : 29.970 fps
Color space                              : YUV
Chroma subsampling                       : 4:2:0
Bit depth                                : 8 bits
Scan type                                : Progressive
Compression mode                         : Lossy
Bits/(Pixel*Frame)                       : 0.197
Stream size                              : 536 MiB (86%)
Writing library                          : XviD 1.2.1 (UTC 2008-12-04)
Audio
ID                                       : 1
Format                                   : MPEG Audio
Format version                           : Version 1
Format profile                           : Layer 3
Mode                                     : Joint stereo
Codec ID                                 : 55
Codec ID/Hint                            : MP3
Duration                                 : 57mn 52s
Bit rate mode                            : Constant
Bit rate                                 : 192 Kbps
Channel(s)                               : 2 channels
Sampling rate                            : 48.0 KHz
Compression mode                         : Lossy
Stream size                              : 79.5 MiB (13%)
Alignment                                : Aligned on interleaves
Interleave, duration                     : 33 ms (1.00 video frame)
Interleave, preload duration             : 504 ms
Title                                    : GREEN TEA DVO

Скриншоты




Последний раз редактировалось: Klёпa (2015-01-04 17:38), всего редактировалось 13 раз(а)
[Профиль] [ЛС]

j_777

Стаж: 3 года 9 месяцев

Сообщений: 302

Пост 20-Окт-2014 11:06 (спустя 50 минут)

[Цитировать]

Спасибо огромное за меньший размер!
[Профиль] [ЛС]

Klёпa ®

Стаж: 3 года 2 месяца

Сообщений: 906

Пост 22-Окт-2014 16:30 (спустя 2 дня 5 часов)

[Цитировать]

Добавлена 2 серия!
[Профиль] [ЛС]

Katherine

Стаж: 3 года 10 месяцев

Сообщений: 48

Пост 23-Окт-2014 16:19 (спустя 23 часа)

[Цитировать]

Добавлена 2 серия!
Уря! Живем!

_________________
[Профиль] [ЛС]

Klёпa ®

Стаж: 3 года 2 месяца

Сообщений: 906

Пост 23-Окт-2014 16:43 (спустя 24 минуты)

[Цитировать]

Katherine, вы живёте, а я страдаю в ожидании третьей af
[Профиль] [ЛС]

Лараллейн

Стаж: 3 года

Сообщений: 13

Пост 06-Ноя-2014 03:38 (спустя 13 дней)

[Цитировать]

Аналогично)))
[Профиль] [ЛС]

Klёпa ®

Стаж: 3 года 2 месяца

Сообщений: 906

Пост 06-Ноя-2014 19:20 (спустя 15 часов)

[Цитировать]

Аналогично)))
Эмн, ну не совсем: я уже в ожидании шестой ag
[Профиль] [ЛС]

Лараллейн

Стаж: 3 года

Сообщений: 13

Пост 06-Ноя-2014 20:48 (спустя 1 час 27 минут)

[Цитировать]

Ожидание тяжко, мои силы на исходе) Тоже могу сорваться и с сабами посмотреть, хотя мне нравится и с озвучкой смотреть, тем более от любимой группы)
[Профиль] [ЛС]

Klёпa ®

Стаж: 3 года 2 месяца

Сообщений: 906

Пост 06-Ноя-2014 21:16 (спустя 28 минут)

[Цитировать]

хотя мне нравится и с озвучкой смотреть
Я классический нарик, ибо мне всегда мало одной дозы, а сами дозы надо подавать строго по расписанию: в озве я потом пересматриваю))) Тем более, тут такие шикарные голоса <3
[Профиль] [ЛС]

Klёпa ®

Стаж: 3 года 2 месяца

Сообщений: 906

Пост 14-Дек-2014 19:01 (спустя 1 месяц 7 дней)

[Цитировать]

Добавлена 3 серия!
[Профиль] [ЛС]

Klёпa ®

Стаж: 3 года 2 месяца

Сообщений: 906

Пост 15-Дек-2014 23:01 (спустя 1 день 3 часа)

[Цитировать]

Добавлена 4 серия!
[Профиль] [ЛС]

j_777

Стаж: 3 года 9 месяцев

Сообщений: 302

Пост 16-Дек-2014 12:06 (спустя 13 часов)

[Цитировать]

Спасибки за очередную серию)))))))))
[Профиль] [ЛС]

Klёпa ®

Стаж: 3 года 2 месяца

Сообщений: 906

Пост 18-Дек-2014 16:49 (спустя 2 дня 4 часа)

[Цитировать]

Добавлена 5 серия!
[Профиль] [ЛС]

Klёпa ®

Стаж: 3 года 2 месяца

Сообщений: 906

Пост 20-Дек-2014 21:07 (спустя 2 дня 4 часа)

[Цитировать]

Добавлена 6 серия!
[Профиль] [ЛС]

Klёпa ®

Стаж: 3 года 2 месяца

Сообщений: 906

Пост 24-Дек-2014 00:41 (спустя 3 дня)

[Цитировать]

Добавлена 7 серия!
[Профиль] [ЛС]
Показать сообщения:    
Ответить на тему

Текущее время: Сегодня 03:54

Часовой пояс: GMT



Вы не можете начинать темы
Вы не можете отвечать на сообщения
Вы не можете редактировать свои сообщения
Вы не можете удалять свои сообщения
Вы не можете голосовать в опросах
Вы не можете прикреплять файлы к сообщениям
Вы не можете скачивать файлы