Жалобы на работу трекера ! прошу сюда :)

Воин Пэк Тон Су / Musa Baek Dong Soo / Warrior Baek Dong Soo [29/29] (Lee Hyun Jik) [2011, исторический, драма, экшн, HDTVRip] [360р] DVO GREEN TEA

Страницы :  1, 2, 3  След.

Ответить на тему
 
Автор Сообщение

Klёпa ®

Стаж: 3 года 2 месяца

Сообщений: 906

Пост 20-Окт-2014 10:22

[Цитировать]

Воин Пэк Тон Су
Musa Baek Dong Soo / Warrior Baek Dong Soo


Год выпуска: 2011
Страна: Южная Корея
Жанр: исторический, драма, экшн
Продолжительность: 29 серий по ~60 мин.
Серий: 1-29 (29)-Перевод:
закадровый (двухголосый) Марина Кириченко и Ярослав Мельник
Сэмпл: https://yadi.sk/
-Режиссер: Ли Хён Чжик (Lee Hyun Jik / 이현직)
В ролях:
Чжи Чхан Ук (Ji Chang Wook / 지창욱) - Пэк Тон Су
Ё Джин Гу (Yeo Jin Goo / 여진구) - Тон Су в детстве
Ю Сын Хо (Yoo Seung Ho / 유승호) - Ё Вун
Пак Гон Тхэ (Park Gun Tae / 박건태) - Ё Вун в детстве
Юн Со И (Yoon So Yi / 윤소이) - Хван Чжин Чжу
Ли Хэ Ин (Lee Hye In / 이혜인) - Чжин Чжу в детстве
Син Хён Бин (Shin Hyun Bin / 신현빈) - Ю Чжи Сон
Нам Чжи Хён (Nam Ji Hyun / 남지현) - Чжи Сон в детстве
Чхве Мин Су (Choi Min Soo / 최민수) - Чхон
Чжун Кван Рыль (Jun Kwang Ryul / 전광렬) - Ким Гван Дэк, святой меченосец
Ли Джин А (Lee Jin Ah / 이진아) - Чжан Ми
Ким Чжи Мин (Kim Ji Min / 김지민) - Ма Чан
Пак Джун Гю (Park Joon Gyu / 박준규) - Хок Са Мо
Пак Вон Сан (Park Won Sang / 박원상) - Дэ Пё
Сон Чжи Ро (Sung Ji Roo / 성지루) - Хван Джин Ги
О Ман Сок (Oh Man Suk / 오만석) - принц Садо
Ли Вон Чжон (Lee Won Jong / 이원종) - Хон Дэ Чжу
Пак Чхоль Мин (Park Chul Min / 박철민) - Ин
-Описание:
События этой исторической дорамы связаны с династией Чосон во времена правления короля Ёнджо. Действие сосредоточено вокруг заговора наследного принца Садо. Воин Пэк Тон Су, живая легенда боевых искусств Чосона, и его отряд защищает короля Ёнджо. Им противостоит загадочная организация наемников, цель которых - убить короля.
-Доп. информация:
Релиз группы GREEN TEA
Перевод фансаб-группа "Loli-Pop_Stars"
ОЗВУЧИВАЕТСЯ ПРИ ПОДДЕРЖКЕ ЗРИТЕЛЕЙ GREEN TEA-Качество: HDTVRip
Формат: AVI
Видео кодек: XviD
Аудио кодек: MP3
Видео: 624х352, ~1300 Кбит/с, 29.97 fps
Аудио: 48 kHz, 192 Кбит/c, 2 канала
!!! Альтернативная раздача: 720p (AVI, H264)
ОСТ к дораме Воин Пэк Тон СуДобавлены 26-29 серииВНИМАНИЕ! Папка переименована в
[GREEN TEA] Воин Пэк Тон Су (360)

MediaInfo

Код:
General
Video
Format                                   : MPEG-4 Visual
Format profile                           : Advanced Simple@L5
Format settings, BVOP                    : 2
Format settings, QPel                    : No
Format settings, GMC                     : No warppoints
Format settings, Matrix                  : Default (MPEG)
Codec ID                                 : XVID
Codec ID/Hint                            : XviD
Duration                                 : 1h 5mn
Bit rate                                 : 1 299 Kbps
Width                                    : 624 pixels
Height                                   : 352 pixels
Display aspect ratio                     : 16:9
Frame rate                               : 29.970 fps
Color space                              : YUV
Chroma subsampling                       : 4:2:0
Bit depth                                : 8 bits
Scan type                                : Progressive
Compression mode                         : Lossy
Bits/(Pixel*Frame)                       : 0.197
Stream size                              : 610 MiB (86%)
Writing library                          : XviD 1.2.1 (UTC 2008-12-04)
Audio
ID                                       : 1
Format                                   : MPEG Audio
Format version                           : Version 1
Format profile                           : Layer 3
Mode                                     : Joint stereo
Codec ID                                 : 55
Codec ID/Hint                            : MP3
Duration                                 : 1h 5mn
Bit rate mode                            : Constant
Bit rate                                 : 192 Kbps
Channel(s)                               : 2 channels
Sampling rate                            : 48.0 KHz
Compression mode                         : Lossy
Stream size                              : 90.2 MiB (13%)
Alignment                                : Aligned on interleaves
Interleave, duration                     : 33 ms (1.00 video frame)
Interleave, preload duration             : 504 ms
Title                                    : GREEN TEA DVO

Скриншоты




Последний раз редактировалось: Klёпa (2015-03-22 23:18), всего редактировалось 6 раз(а)
[Профиль] [ЛС]

Lana

Стаж: 3 года 10 месяцев

Сообщений: 5

Пост 26-Окт-2014 17:30 (спустя 6 дней)

[Цитировать]

Спасибо за озвучку. С удовольствием скачаю для домашней коллекции. :)
[Профиль] [ЛС]

Tainted-love

Стаж: 2 года 11 месяцев

Сообщений: 1180

Пост 26-Окт-2014 18:12 (спустя 41 минута)

[Цитировать]

Я тоже... я тоже...
[Профиль] [ЛС]

Klёпa ®

Стаж: 3 года 2 месяца

Сообщений: 906

Пост 27-Окт-2014 03:49 (спустя 9 часов)

[Цитировать]

Добавлена 3 серия!
[Профиль] [ЛС]

Tainted-love

Стаж: 2 года 11 месяцев

Сообщений: 1180

Пост 27-Окт-2014 22:17 (спустя 18 часов)

[Цитировать]

Спасибо... спасибо за вашу работу... удачи!!!
[Профиль] [ЛС]

Tainted-love

Стаж: 2 года 11 месяцев

Сообщений: 1180

Пост 09-Ноя-2014 14:46 (спустя 12 дней)

[Цитировать]

Очень ждем новых серий... пожалуйста...
[Профиль] [ЛС]

dusy78

Стаж: 3 года 10 месяцев

Сообщений: 1005

Откуда: Россия

Пост 09-Ноя-2014 16:44 (спустя 1 час 58 минут)

[Цитировать]

Tainted-love, сериал озвучивается на платной основе
[Профиль] [ЛС]

Tainted-love

Стаж: 2 года 11 месяцев

Сообщений: 1180

Пост 09-Ноя-2014 17:42 (спустя 57 минут)

[Цитировать]

Понятно... спасибо что сказали.
[Профиль] [ЛС]

Klёпa ®

Стаж: 3 года 2 месяца

Сообщений: 906

Пост 09-Ноя-2014 19:51 (спустя 2 часа 8 минут)

[Цитировать]

Понятно... спасибо что сказали.
Вообще-то это было указано изначально в Доп.информации к релизу))) bs
Доп. информация:
Релиз группы GREEN TEA
Перевод фансаб-группа "Loli-Pop_Stars"
=> ОЗВУЧИВАЕТСЯ ПРИ ПОДДЕРЖКЕ ЗРИТЕЛЕЙ GREEN TEA <=
[Профиль] [ЛС]

Klёпa ®

Стаж: 3 года 2 месяца

Сообщений: 906

Пост 12-Ноя-2014 18:06 (спустя 2 дня 22 часа)

[Цитировать]

Добавлена 4 серия!
[Профиль] [ЛС]

Tainted-love

Стаж: 2 года 11 месяцев

Сообщений: 1180

Пост 06-Дек-2014 22:09 (спустя 24 дня)

[Цитировать]

Очень спасибо за вашу великолепную работу!!! Удачки!!!
[Профиль] [ЛС]

Tainted-love

Стаж: 2 года 11 месяцев

Сообщений: 1180

Пост 08-Янв-2015 17:01 (спустя 1 месяц 1 день)

[Цитировать]

С Новым годом! С новым счастьем Вас всех ребята поздравляю! Удачи и вдохновения желаю, а главное... любви побольше.
[Профиль] [ЛС]

Tainted-love

Стаж: 2 года 11 месяцев

Сообщений: 1180

Пост 30-Янв-2015 13:40 (спустя 21 день)

[Цитировать]

Я очень извиняюсь, но хочется увидеть и здесь еще четыре серии, как в большой раздаче... пожалуйста.
[Профиль] [ЛС]

Klёпa ®

Стаж: 3 года 2 месяца

Сообщений: 906

Пост 02-Фев-2015 20:40 (спустя 3 дня)

[Цитировать]

Добавлены 5-8 серии!
[Профиль] [ЛС]

Tainted-love

Стаж: 2 года 11 месяцев

Сообщений: 1180

Пост 02-Фев-2015 21:51 (спустя 1 час 11 минут)

[Цитировать]

Спасибо большое за Вашу отзывчивость. bf
[Профиль] [ЛС]
Показать сообщения:    
Ответить на тему

Текущее время: Сегодня 20:39

Часовой пояс: GMT



Вы не можете начинать темы
Вы не можете отвечать на сообщения
Вы не можете редактировать свои сообщения
Вы не можете удалять свои сообщения
Вы не можете голосовать в опросах
Вы не можете прикреплять файлы к сообщениям
Вы не можете скачивать файлы