Жалобы на работу трекера ! прошу сюда :)

Кантабиле завтрашнего дня / Нэ Иль Кантабиле / Cantabile Tomorrow / Naeil's Cantabile (Хан Сан У) [16/16] [2014 г., комедия, лайв-экшн, музыкальный, романтика, TVRip] [360р] DVO GREEN TEA

Страницы :  1, 2  След.

Ответить на тему
 
Автор Сообщение

dusy78 ®

Стаж: 3 года 10 месяцев

Сообщений: 1005

Откуда: Россия

Пост 23-Окт-2014 11:54

[Цитировать]

Кантабиле завтрашнего дня / Нэ Иль Кантабиле
Cantabile Tomorrow / Naeil's Cantabile

Год выпуска: 2014
Страна: Южная Корея
Жанр: комедия, лайв-экшн, музыкальный, романтика
Продолжительность: 16/16
Озвучивание: Анастасия Романова и Макс Коллапс
СЕМПЛ: https://yadi.sk/i/m2miXGnpcETEB
Режиссер: Хан Сан У
В ролях:
Чжу Вон в роли Чха Ю Чжина
Сим Ын Кён в роли Соль Нэ Иль
Ко Кён Пё в роли Ю Иль Рака
Пэ Мин Чжон в роли Чон Си Вон
Описание: В основе дорамы лежит популярная японская манга Ниномии Томоко, описывающая весёлую романтическую историю двух противоположностей. Музыкальный гений-аккуратист и непредсказуемая грязнуля-пианистка. Судьба то и дело подкидывает им новые встречи, а тут ещё и разношёрстная группа талантливых музыкантов под руководством эксцентричного всемирно известного дирижёра.
Вместе они создадут свою неповторимую музыку.
Идти по жизни с юмором, не обращая внимание на предрассудки - их девиз.
Разные судьбы и характеры, пройдёт немало времени, прежде чем они смогут стать одним целым.
Перевод описания: Anuksanamun
Доп. информация:
Перевод: фсг "Мания"
Релиз группы GREEN TEA
Тайминг: Разифат Асланова
Оформление постера и работа со звуком: Ольга Гринтиева
Качество: TVRip
Формат: AVI
Видео кодек: XviD
Аудио кодек: MP3
Видео: 624x352, ~1400 Кбит/с, 29.97 fps
Аудио: 192 Кбит/с, 48.0 КHz, 2 канала
Альтернативная раздача 1280х720
ОСТ к дораме Кантабиле завтрашнего дня

Скриншоты

MediaInfo

General
Complete name : F:\Рабочая!!!1\Кантабиле завтрашнего дня\[GREEN TEA] Кантабиле завтрашнего дня 360р\[GREEN TEA] Кантабиле завтрашнего дня 360р_01.avi
Format : AVI
Format/Info : Audio Video Interleave
File size : 675 MiB
Duration : 59mn 1s
Overall bit rate : 1 599 Kbps
Writing application : VirtualDubMod 1.5.10.2 (build 2542/release)
Writing library : VirtualDubMod build 2542/release
Video
ID : 0
Format : MPEG-4 Visual
Format profile : Simple@L3
Format settings, BVOP : No
Format settings, QPel : No
Format settings, GMC : No warppoints
Format settings, Matrix : Default (H.263)
Codec ID : DX50
Codec ID/Hint : DivX 5
Duration : 59mn 1s
Bit rate : 1 396 Kbps
Width : 624 pixels
Height : 352 pixels
Display aspect ratio : 16:9
Frame rate : 29.970 fps
Color space : YUV
Chroma subsampling : 4:2:0
Bit depth : 8 bits
Scan type : Progressive
Compression mode : Lossy
Bits/(Pixel*Frame) : 0.212
Stream size : 589 MiB (87%)
Writing library : XviD 64
Audio
ID : 1
Format : MPEG Audio
Format version : Version 1
Format profile : Layer 3
Codec ID : 55
Codec ID/Hint : MP3
Duration : 59mn 1s
Bit rate mode : Constant
Bit rate : 192 Kbps
Channel(s) : 2 channels
Sampling rate : 48.0 KHz
Compression mode : Lossy
Stream size : 81.0 MiB (12%)
Alignment : Aligned on interleaves
Interleave, duration : 33 ms (1.00 video frame)
Interleave, preload duration : 504 ms
Добавлены заключительные серии!


Последний раз редактировалось: dusy78 (2015-09-22 15:20), всего редактировалось 15 раз(а)
[Профиль] [ЛС]

j_777

Стаж: 3 года 9 месяцев

Сообщений: 302

Пост 23-Окт-2014 14:03 (спустя 2 часа 9 минут)

[Цитировать]

Спасибо за меньший размер.
[Профиль] [ЛС]

Nas

Стаж: 3 года 10 месяцев

Сообщений: 372

Пост 23-Окт-2014 17:18 (спустя 3 часа)

[Цитировать]

Добавлена 2 серия!
[Профиль] [ЛС]

Светлячок

Стаж: 2 года 2 месяца

Сообщений: 1

Пост 31-Окт-2014 09:51 (спустя 7 дней)

[Цитировать]

Спасибо, ждем 3-ю серию
[Профиль] [ЛС]

dusy78 ®

Стаж: 3 года 10 месяцев

Сообщений: 1005

Откуда: Россия

Пост 02-Ноя-2014 12:22 (спустя 2 дня 2 часа)

[Цитировать]

Добавлены 3-4 серии!
[Профиль] [ЛС]

dusy78 ®

Стаж: 3 года 10 месяцев

Сообщений: 1005

Откуда: Россия

Пост 05-Ноя-2014 15:01 (спустя 3 дня)

[Цитировать]

Добавлена 5 серия!Смотрю и радуюсь каждой серии! Спасибо ребята за озвучку!!!
[Профиль] [ЛС]

dusy78 ®

Стаж: 3 года 10 месяцев

Сообщений: 1005

Откуда: Россия

Пост 13-Ноя-2014 15:00 (спустя 7 дней)

[Цитировать]

Добавлена 6 серия!
[Профиль] [ЛС]

j_777

Стаж: 3 года 9 месяцев

Сообщений: 302

Пост 13-Ноя-2014 15:44 (спустя 43 минуты)

[Цитировать]

Спасибо за новые серии!
[Профиль] [ЛС]

Мария Максименко 1994

Стаж: 3 года 1 месяц

Сообщений: 5

Пост 12-Дек-2014 13:14 (спустя 28 дней)

[Цитировать]

А когда будет продолжение? bv
[Профиль] [ЛС]

dusy78 ®

Стаж: 3 года 10 месяцев

Сообщений: 1005

Откуда: Россия

Пост 27-Дек-2014 16:14 (спустя 15 дней)

[Цитировать]

Добавлена 7 серия!
[Профиль] [ЛС]

dusy78 ®

Стаж: 3 года 10 месяцев

Сообщений: 1005

Откуда: Россия

Пост 16-Апр-2015 14:40 (спустя 3 месяца 19 дней)

[Цитировать]

Добавлены 8-10 серии!
[Профиль] [ЛС]

j_777

Стаж: 3 года 9 месяцев

Сообщений: 302

Пост 16-Апр-2015 15:12 (спустя 31 минута)

[Цитировать]

спасибки огромное!
[Профиль] [ЛС]

dusy78 ®

Стаж: 3 года 10 месяцев

Сообщений: 1005

Откуда: Россия

Пост 16-Май-2015 04:58 (спустя 29 дней)

[Цитировать]

Добавлена 11 серия!
[Профиль] [ЛС]

dusy78 ®

Стаж: 3 года 10 месяцев

Сообщений: 1005

Откуда: Россия

Пост 22-Май-2015 08:09 (спустя 6 дней)

[Цитировать]

Добавлена 12 серия!
[Профиль] [ЛС]

j_777

Стаж: 3 года 9 месяцев

Сообщений: 302

Пост 22-Май-2015 14:09 (спустя 5 часов)

[Цитировать]

Спасибо огромное!!!
[Профиль] [ЛС]
Показать сообщения:    
Ответить на тему

Текущее время: Сегодня 05:44

Часовой пояс: GMT



Вы не можете начинать темы
Вы не можете отвечать на сообщения
Вы не можете редактировать свои сообщения
Вы не можете удалять свои сообщения
Вы не можете голосовать в опросах
Вы не можете прикреплять файлы к сообщениям
Вы не можете скачивать файлы