Жалобы на работу трекера ! прошу сюда :)

Мечта / Dream [12/20] (Пэк Су Чхан) [2009, спорт, романтика, HDTVRip] [720p] VO GREEN TEA

Ответить на тему
 
Автор Сообщение

Klёпa ®

Стаж: 3 года 2 месяца

Сообщений: 906

Пост 24-Окт-2014 00:00

[Цитировать]

МЕЧТА / DREAM

Год выпуска: 2009
Страна: Южная Корея
Жанр: спорт, романтика
Продолжительность: 20 серий по ~ 60-70 мин.
Серий: 1-12 (20)-Озвучивание: Одноголосое (закадровое) Людмила Линькова
Сэмпл: https://yadi.sk/-Режиссер: Пэк Су Чхан (Baek Soo Chan)
В ролях:
Чу Джин Мо (Joo Jin Mo / 주진모) - Нам Чжэ Иль
Ким Бом (Kim Bum / 김범) - Ли Чжан Сок
Сон Дам Би (Son Dam Bi / 손담비) - Пак Со Ён
Хон А Рым (Hong Ah Reum / 홍아름) - Сон Ю Ри
Пак Сан Вон (Park Sang Won / 박상원) - Кан Гён Тхэк
Чхве Ё Джин (Choi Yeo Jin / 최여진) - Чан Су Джин
О Даль Су (Oh Dal Soo / 오달수) - Ли Ён, отец Чжан Сока
Ли Ги Ён (Lee Ki Young / 이기영) - Пак Бён Сам, отец Со Ён
Пак Нам Хён (Park Nam Hyun / 박남현) - Го Кван Пал, дядя Со Ён
Ли А Хён (Lee Ah Hyun / 이아현) - Чжон Гым Чжа
Ким Ун (Kim Woong / 김웅) - Мэн До Пхиль
Ю Юн Сок (Yoo Yun Suk / 유연석) - Но Чхоль Чжун
Го Чхан Сок (Go Chang Suk / 고창석) - Straw
и др.-Описание:
Нам Чжэ Иль (Чу Джин Мо) - спортивный агент. А кто такой спортивный агент? Спортивный агент - это все равно что мозг и конечности для спортсмена.
Это тот, кто позволяя подопечному сосредоточиться на спорте, решает за него все проблемы. Деньги, семья, противоположный пол, обеспечения на старость - агент планирует жизнь подопечного от пеленок и до гроба. И те проценты, которые агент получает с доходов спортсмена, им вполне заслужены. Спортсмены, как маленькие дети и никогда нельзя ослаблять вожжи, с помощью которых ты управляешь их жизнью. Так считал Нам Чжэ Иль, мало того он стремился стать самым высококлассным спортивным агентом Кореи, а это значит иметь в своем активе спортсменов мирового уровня. Но... Мир профессионального спорта жесток и малейшая ошибка грозит падением с вершины на самое дно. И Нам Чже Иля подставляет его друг, предает шеф, и бросают все "друзья".
Ли Чжан Сок (Ким Бом) - молодой парень, только-только вышедший из исправительного центра для несовершеннолетних, где отсидел срок за кражу. Ему некуда идти, единственный родственник (приемный отец) - вор-карманник. Чжан Сок не хочет больше воровать (он и раньше-то не хотел, но папа заставлял). Теперь ему предстоит найти свой новый путь в жизни.
Пак Со Ён (Сон Дам Би) - инструктор по тайбо (вид гимнастики для женщин, типа аэробики с элементами боевых единоборств), девушка гордая и уверенная в себе. Один раз она уже поцапалась с самоуверенным, тогда еще "крутым" спортивным агентом Нам Чжэ Илем, а на этот раз настучала по лицу Чжан Соку, который, томясь по женскому полу после отсидки, пытался заглянуть в женскую раздевалку спортзала, где работает Со Ён.
Мечта... Мечта Нам Чжэ Иля стать великим спортивным агентом не выдержала проверки на прочность. Что ж, тепрь его мечта скромнее, но она есть. Всего лишь вернуться и доказать всему миру, что он может. Может сам встать на ноги, может подняться, может измениться, может уважать себя... Мечта... Мечте Чжан Сока еще только предстоит рождение. Но он уже точно знает, чего не хочет. Он не хочет быть преступником, не хочет обманывать людей, не хочет жить за счет других. Значит он должен встать на ноги, измениться и найти путь, идя по которому, сможет уважать себя.
Но с чего начать? Единственное, что хорошо получается у Чжан Сока - это драться. Единственное, что хорошо умеет Нам Чжэ Иль - это вести спортсменов к победе. Это ли не шанс? Мечта... такая хрупкая и такая удивительно сильная, она связала этих двоих, им нечего терять, но есть к чему стремиться. Теперь у них одна мечта на двоих, и она ведет их вперед. Получится ли достичь мечты? Ведь, несмотря ни на что, они такие разные, бывший "крутой" агент Нам Чжэ Иль и мальчик из подворотни Чжан Сок. А ведь есть еще Со Ён, о чем мечтает она?-Доп. информация:
Релиз подготовлен группой "GREEN TEA"
Перевод: Эльза Нордж
Работа со звуком: Людмила Линькова-Качество: HDTVRip
Формат: AVI
Видео кодек: H264
Аудио кодек: MP3
Видео: 1280х720, ~3025 Кбит/с, 29.970 fps
Аудио: 48 kHz, 192 Кбит/c, 2 канала
!!! Альтернативная раздача: 360p (AVI, XviD)
ОСТ к дораме Мечта11.12.2014 - добавлена 12 серия.

MediaInfo

Код:
General
Complete name                            : [GREEN TEA] Dream_01_HD.avi
Format                                   : AVI
Format/Info                              : Audio Video Interleave
File size                                : 1.48 GiB
Duration                                 : 1h 7mn
Overall bit rate                         : 3 162 Kbps
Movie name                               : Мечта / Dream (2009)
Writing application                      : VirtualDubMod 1.5.10.2 (build 2542/release)
Writing library                          : VirtualDubMod build 2542/release
Video
ID                                       : 0
Format                                   : AVC
Format/Info                              : Advanced Video Codec
Format profile                           : High@L4.1
Format settings, CABAC                   : Yes
Format settings, ReFrames                : 2 frames
Codec ID                                 : h264
Duration                                 : 1h 7mn
Bit rate                                 : 3 025 Kbps
Width                                    : 1 280 pixels
Height                                   : 720 pixels
Display aspect ratio                     : 16:9
Frame rate                               : 29.970 fps
Color space                              : YUV
Chroma subsampling                       : 4:2:0
Bit depth                                : 8 bits
Scan type                                : Progressive
Bits/(Pixel*Frame)                       : 0.110
Stream size                              : 1.42 GiB (96%)
Writing library                          : x264 core 130 r2273 b3065e6
Encoding settings                        : cabac=1 / ref=1 / deblock=1:0:0 / analyse=0x3:0x113 / me=hex / subme=7 / psy=1 / psy_rd=1.00:0.00 / mixed_ref=0 / me_range=16 / chroma_me=1 / trellis=1 / 8x8dct=1 / cqm=0 / deadzone=21,11 / fast_pskip=1 / chroma_qp_offset=-2 / threads=6 / lookahead_threads=1 / sliced_threads=0 / nr=0 / decimate=1 / interlaced=0 / bluray_compat=0 / constrained_intra=0 / bframes=1 / b_pyramid=0 / b_adapt=1 / b_bias=0 / direct=1 / weightb=1 / open_gop=0 / weightp=2 / keyint=20 / keyint_min=1 / scenecut=40 / intra_refresh=0 / rc_lookahead=20 / rc=abr / mbtree=1 / bitrate=3025 / ratetol=1.0 / qcomp=0.60 / qpmin=0 / qpmax=69 / qpstep=4 / ip_ratio=1.40 / aq=1:1.00
Audio
ID                                       : 1
Format                                   : MPEG Audio
Format version                           : Version 1
Format profile                           : Layer 3
Mode                                     : Joint stereo
Mode extension                           : MS Stereo
Codec ID                                 : 55
Codec ID/Hint                            : MP3
Duration                                 : 1h 7mn
Bit rate mode                            : Constant
Bit rate                                 : 128 Kbps
Channel(s)                               : 2 channels
Sampling rate                            : 48.0 KHz
Compression mode                         : Lossy
Stream size                              : 61.5 MiB (4%)
Alignment                                : Aligned on interleaves
Interleave, duration                     : 33 ms (1.00 video frame)
Interleave, preload duration             : 504 ms
Title                                    : GREEN TEA VO

Скриншоты




Последний раз редактировалось: Klёпa (2014-12-10 22:23), всего редактировалось 6 раз(а)
[Профиль] [ЛС]

dusy78

Стаж: 3 года 10 месяцев

Сообщений: 1005

Откуда: Россия

Пост 24-Окт-2014 03:19 (спустя 3 часа)

[Цитировать]

Вау! Клёпочка молодец!
[Профиль] [ЛС]

Klёпa ®

Стаж: 3 года 2 месяца

Сообщений: 906

Пост 24-Окт-2014 03:40 (спустя 21 минута)

[Цитировать]

dusy78, угу, можно сказать, почти "эксклюзив" забацали ag
[Профиль] [ЛС]

Klёпa ®

Стаж: 3 года 2 месяца

Сообщений: 906

Пост 27-Окт-2014 20:52 (спустя 3 дня)

[Цитировать]

Добавлена 7 серия!
[Профиль] [ЛС]

Klёпa ®

Стаж: 3 года 2 месяца

Сообщений: 906

Пост 31-Окт-2014 22:20 (спустя 4 дня)

[Цитировать]

Добавлена 8 серия!
[Профиль] [ЛС]

Klёпa ®

Стаж: 3 года 2 месяца

Сообщений: 906

Пост 13-Ноя-2014 17:40 (спустя 12 дней)

[Цитировать]

Добавлена 9 серия!
[Профиль] [ЛС]

Klёпa ®

Стаж: 3 года 2 месяца

Сообщений: 906

Пост 23-Ноя-2014 23:59 (спустя 10 дней)

[Цитировать]

Добавлена 10 серия!
[Профиль] [ЛС]

Klёпa ®

Стаж: 3 года 2 месяца

Сообщений: 906

Пост 10-Дек-2014 01:23 (спустя 16 дней)

[Цитировать]

Добавлена 11 серия!
[Профиль] [ЛС]

Klёпa ®

Стаж: 3 года 2 месяца

Сообщений: 906

Пост 10-Дек-2014 22:25 (спустя 21 час)

[Цитировать]

Добавлена 12 серия!
[Профиль] [ЛС]

Klёпa ®

Стаж: 3 года 2 месяца

Сообщений: 906

Пост 12-Фев-2015 21:50 (спустя 2 месяца 1 день)

[Цитировать]

Раздача временно приостановлена до разрешения проблем с видео. bc
Если, вдруг, у кого-нибудь есть данный сериал в "здоровом" HD, пишите в ЛС. Заранее спасибо за помощь)) aa
[Профиль] [ЛС]
Показать сообщения:    
Ответить на тему

Текущее время: Сегодня 20:04

Часовой пояс: GMT



Вы не можете начинать темы
Вы не можете отвечать на сообщения
Вы не можете редактировать свои сообщения
Вы не можете удалять свои сообщения
Вы не можете голосовать в опросах
Вы не можете прикреплять файлы к сообщениям
Вы не можете скачивать файлы