Жалобы на работу трекера ! прошу сюда :)

Современный фермер / Modern Farmer (О Чжи Сок) [2014 г., комедия, романтика, музыкальный] [20/20] [360p] DVO GREEN TEA

Страницы :  1, 2, 3  След.

Ответить на тему
 
Автор Сообщение

dusy78 ®

Стаж: 3 года 10 месяцев

Сообщений: 1005

Откуда: Россия

Пост 24-Окт-2014 15:24

[Цитировать]

Современный фермер / Modern Farmer
Год выпуска: 2014
Страна: Южная Корея
Жанр: комедия, романтика, музыкальный
Продолжительность: 20/20
Озвучивание: Марина Кириченко и Ярослав Мельник
СЕМПЛ: https://yadi.sk/i/ig7JssB3cGC6b
Режиссер: О Чжи Сок
В ролях: Пак Мин У (Park Min Woo),
Ли Хон Ки (Lee Hong Gi),
ЧжэХён из (N.Flying),
Ли Си Он (Lee Shi Un)
Описание: "Современный фермер" - это история о рок-группе, которая после своих экспериментов с музыкой решает вернуться к сельскому хозяйству.
Ли Хонки будет играть роль гениального рокера Ли Мин Ки - лидера, вокалиста и гитариста группы "Excellent Souls"
Пак Мин У будет играть роль клавишника Кан Хёка, а Ли Си Он - бас-гитариста группы Ю Хан Чхоля. Также известно, что Ли Хон Ки и Пак Мин У будут соперниками в борьбе за сердце девушки.
ЧжэХён из N.Flying сыграет цветочного парня в драме .
Чжэ Хён исполнит роль Хан Ки Чжуна, участника рок-группы. Хотя Хан Ки Чжун внешне холоден, у него очень чувствительная душа.
Доп. информация:
Релиз группы: GREEN TEA
Перевод: Фансаб-группы "Bears"
Формат: AVI
Видео кодек: XviD
Аудио кодек: MP3
Видео: 624x352, ~1450 Кбит/с, 29.97 fps
Аудио: 192 Кбит/с, 48.0 КHz, 2 канала
Альтернативная раздача 1280х720
ОСТ к дораме Современный фермер

MediaInfo

General
Complete name : J:\Рабочая для текущих релизов\Современный фермер\[GREEN TEA] Современный фермер (360)\[GREEN TEA] Современный фермер (360) 01.avi
Format : AVI
Format/Info : Audio Video Interleave
File size : 762 MiB
Duration : 1h 4mn
Overall bit rate : 1 651 Kbps
Writing application : VirtualDubMod 1.5.10.2 (build 2542/release)
Writing library : VirtualDubMod build 2542/release
Video
ID : 0
Format : xvid
Codec ID : xvid
Duration : 1h 4mn
Bit rate : 1 447 Kbps
Width : 624 pixels
Height : 352 pixels
Display aspect ratio : 16:9
Frame rate : 29.970 fps
Bits/(Pixel*Frame) : 0.220
Stream size : 668 MiB (88%)
Audio
ID : 1
Format : MPEG Audio
Format version : Version 1
Format profile : Layer 3
Mode : Joint stereo
Codec ID : 55
Codec ID/Hint : MP3
Duration : 1h 4mn
Bit rate mode : Constant
Bit rate : 192 Kbps
Channel(s) : 2 channels
Sampling rate : 48.0 KHz
Compression mode : Lossy
Stream size : 88.6 MiB (12%)
Alignment : Aligned on interleaves
Interleave, duration : 33 ms (1.00 video frame)
Interleave, preload duration : 504 ms
Добавлена 20 серия!


Последний раз редактировалось: dusy78 (2015-02-02 18:33), всего редактировалось 16 раз(а)
[Профиль] [ЛС]

j_777

Стаж: 3 года 9 месяцев

Сообщений: 302

Пост 25-Окт-2014 11:25 (спустя 20 часов)

[Цитировать]

Спасибки огромное!!!!!!!!!!
[Профиль] [ЛС]

Lora

Стаж: 2 года 2 месяца

Сообщений: 41

Пост 27-Окт-2014 06:41 (спустя 1 день 19 часов)

[Цитировать]

Хотелось бы скорости побольше...
[Профиль] [ЛС]

dusy78 ®

Стаж: 3 года 10 месяцев

Сообщений: 1005

Откуда: Россия

Пост 02-Ноя-2014 10:00 (спустя 6 дней)

[Цитировать]

Добавлены 2-3 серии!
[Профиль] [ЛС]

emperatrica

Стаж: 3 года

Сообщений: 16

Пост 02-Ноя-2014 11:16 (спустя 1 час 15 минут)

[Цитировать]

Огромное спасибо за Ваши труды!!!!!
[Профиль] [ЛС]

dusy78 ®

Стаж: 3 года 10 месяцев

Сообщений: 1005

Откуда: Россия

Пост 06-Ноя-2014 18:06 (спустя 4 дня)

[Цитировать]

Добавлена 4 серия!
[Профиль] [ЛС]

dusy78 ®

Стаж: 3 года 10 месяцев

Сообщений: 1005

Откуда: Россия

Пост 11-Ноя-2014 14:43 (спустя 4 дня)

[Цитировать]

Добавлена 5 серия!Я хохотала как умалишенная! Приятного просмотра!
[Профиль] [ЛС]

dusy78 ®

Стаж: 3 года 10 месяцев

Сообщений: 1005

Откуда: Россия

Пост 14-Ноя-2014 08:41 (спустя 2 дня 17 часов)

[Цитировать]

Добавлена 6 серия!
[Профиль] [ЛС]

j_777

Стаж: 3 года 9 месяцев

Сообщений: 302

Пост 14-Ноя-2014 12:01 (спустя 3 часа)

[Цитировать]

Спасибо!!!
[Профиль] [ЛС]

dusy78 ®

Стаж: 3 года 10 месяцев

Сообщений: 1005

Откуда: Россия

Пост 16-Ноя-2014 18:34 (спустя 2 дня 6 часов)

[Цитировать]

Добавлена 7 серия!
[Профиль] [ЛС]

dusy78 ®

Стаж: 3 года 10 месяцев

Сообщений: 1005

Откуда: Россия

Пост 24-Ноя-2014 11:42 (спустя 7 дней)

[Цитировать]

Добавлена 8 серия!
[Профиль] [ЛС]

tianaras

Стаж: 3 года 1 месяц

Сообщений: 19

Пост 24-Ноя-2014 15:05 (спустя 3 часа)

[Цитировать]

dusy78 ®,спасибо большое за малый размерчик!Очень порадовали! bp В альтернативной раздаче 8 серия появилась пораньше,но я жду именно вашу раздачу!
[Профиль] [ЛС]

dusy78 ®

Стаж: 3 года 10 месяцев

Сообщений: 1005

Откуда: Россия

Пост 24-Ноя-2014 15:52 (спустя 46 минут)

[Цитировать]

tianaras, всегда, пожалуйста! Благодарю за терпеливое ожидание! ax
[Профиль] [ЛС]

Zhandos94

Стаж: 2 года 4 месяца

Сообщений: 1

Пост 28-Ноя-2014 14:55 (спустя 3 дня)

[Цитировать]

Классный сериал !!! и безумно смешно)
[Профиль] [ЛС]

tianaras

Стаж: 3 года 1 месяц

Сообщений: 19

Пост 06-Дек-2014 21:36 (спустя 8 дней)

[Цитировать]

tianaras, всегда, пожалуйста! Благодарю за терпеливое ожидание! ax
Узнала новость о появлении новой серии!dusy78 ®, на Вас одна надежда!Жду вашей раздачи!Благодарна за Вашу работу!
[Профиль] [ЛС]
Показать сообщения:    
Ответить на тему

Текущее время: Сегодня 18:32

Часовой пояс: GMT



Вы не можете начинать темы
Вы не можете отвечать на сообщения
Вы не можете редактировать свои сообщения
Вы не можете удалять свои сообщения
Вы не можете голосовать в опросах
Вы не можете прикреплять файлы к сообщениям
Вы не можете скачивать файлы