Жалобы на работу трекера ! прошу сюда :)

Спасибо / Thank You [16/16] (Ли Дже Дон) [2007, мелодрама, романтика, HDTVRip] [720p] DVO GREEN TEA

Страницы :  1, 2  След.

Ответить на тему
 
Автор Сообщение

Klёпa ®

Стаж: 3 года 2 месяца

Сообщений: 906

Пост 28-Окт-2014 21:57

[Цитировать]

Спасибо
Thank You (We Were There)


Год выпуска: 2007
Страна: Южная Корея
Жанр: мелодрама, романтика
Продолжительность: 16 серий по ~60 мин.
Серий: 1-16 (16)-Перевод:
закадровый (двухголосый) Людмила Линькова, Валерий Феодосов (1-3 серии) и Владимир Полупанов (с 4 серии)
Сэмпл: https://yadi.sk/i/
-Режиссер: Ли Дже Дон (Lee Jae Dong / 이재동)
Сценарист: Ли Гён Хи (Lee Kyung Hee / 이경희)
В ролях:
Чан Хёк (Jang Hyuk / 장혁) - Мин Ги Со
Гон Хё Джин (Gong Hyo Jin / 공효진) - Ли Ён Шин
Син Сон Рок (Shin Sung Rok / 신성록) - Чхве Сок Хён
Ким Сон Ын (Kim Sung Eun / 김성은) - Су Ын Хи
Со Син Э (Seo Shin Ae / 서신애) - Ли Бом, дочь Ён Шин
Син Гу (Shin Goo / 신구) - мистер Ли, дедушка Ён Шин
Рю Сын Су (Ryu Seung Soo / 류승수) - доктор О Чжон Су
Гиль Ён У (Kil Yong Woo / 길용우) - Мин Чжун Хо
Хон Ё Джин (Hong Yeo Jin / 홍여진) - Кан Хэ Чжон
и др.
-Описание:
Ёншин тихо и мирно живет на маленьком острове вместе со своим слабоумным дедушкой и дочерью, больной СПИДом. Вскоре, после смерти своей возлюбленной, на остров приезжает Мин Гисы, который будучи известным в Сеуле хирургом, не в силах был её спасти. За грубостью и хамством, Гисы старается спрятать своё отчаяние и бессилие что-либо изменить. Сняв комнату в доме Ёншин и постепенно проникаясь к ней чувствами, он не понимает, что чувствует... любовь или просто привязанность. Их отношения начинают постепенно развиваться, но в это же самое время на остров приезжает Сокхён, биологический отец дочери Ёншин, Ли Бом. Он планирует строить на острове отель…
-Доп. информация:
Релиз подготовлен группой GREEN TEA
Перевод RG Translators
Работа со звуком: Людмила Линькова
Оформление постера: Дина Фаткуллина-Качество: HDTVRip
Формат: AVI
Видео кодек: xvid
Аудио кодек: MP3
Видео: 1280х720, ~2700 Кбит/с, 23.976 fps
Аудио: 48 kHz, 128 Кбит/c, 2 канала
!!! Альтернативная раздача: 360p (AVI, XviD)
ОСТ к дораме СпасибоДобавлены заключительные серии

MediaInfo

Код:
General
Format                                   : AVI
Format/Info                              : Audio Video Interleave
File size                                : 1.34 GiB
Duration                                 : 1h 7mn
Overall bit rate                         : 2 826 Kbps
Movie name                               : Спасибо / Thank You (2007)
Writing application                      : VirtualDubMod 1.5.10.2 (build 2542/release)
Writing library                          : VirtualDubMod build 2542/release
Video
ID                                       : 0
Format                                   : xvid
Codec ID                                 : xvid
Duration                                 : 1h 7mn
Bit rate                                 : 2 687 Kbps
Width                                    : 1 280 pixels
Height                                   : 720 pixels
Display aspect ratio                     : 16:9
Frame rate                               : 29.970 fps
Bits/(Pixel*Frame)                       : 0.097
Stream size                              : 1.27 GiB (95%)
Audio
ID                                       : 1
Format                                   : MPEG Audio
Format version                           : Version 1
Format profile                           : Layer 3
Mode                                     : Joint stereo
Mode extension                           : MS Stereo
Codec ID                                 : 55
Codec ID/Hint                            : MP3
Duration                                 : 1h 7mn
Bit rate mode                            : Constant
Bit rate                                 : 128 Kbps
Channel(s)                               : 2 channels
Sampling rate                            : 48.0 KHz
Compression mode                         : Lossy
Stream size                              : 62.1 MiB (5%)
Alignment                                : Aligned on interleaves
Interleave, duration                     : 33 ms (1.00 video frame)
Interleave, preload duration             : 504 ms
Title                                    : GREEN TEA DVO

Скриншоты




Последний раз редактировалось: Klёпa (2015-03-07 13:16), всего редактировалось 7 раз(а)
[Профиль] [ЛС]

janin57

Стаж: 3 года 10 месяцев

Сообщений: 3

Пост 30-Окт-2014 14:31 (спустя 1 день 16 часов)

[Цитировать]

СПАСИБИЩЕ)))) за "Спасибо" одна из любимых дорам, к тому же с такими замечательными актерами.
[Профиль] [ЛС]

Klёпa ®

Стаж: 3 года 2 месяца

Сообщений: 906

Пост 18-Ноя-2014 05:55 (спустя 18 дней)

[Цитировать]

Добавлена 2 серия!
[Профиль] [ЛС]

Klёпa ®

Стаж: 3 года 2 месяца

Сообщений: 906

Пост 06-Дек-2014 15:16 (спустя 18 дней)

[Цитировать]

Добавлена 3 серия!
[Профиль] [ЛС]

Klёпa ®

Стаж: 3 года 2 месяца

Сообщений: 906

Пост 07-Дек-2014 23:14 (спустя 1 день 7 часов)

[Цитировать]

Добавлена 4 серия!
[Профиль] [ЛС]

Klёпa ®

Стаж: 3 года 2 месяца

Сообщений: 906

Пост 15-Дек-2014 19:25 (спустя 7 дней)

[Цитировать]

Добавлена 5 серия!
[Профиль] [ЛС]

Dobrov

Стаж: 2 года 11 месяцев

Сообщений: 1

Пост 06-Мар-2015 00:27 (спустя 2 месяца 21 день)

[Цитировать]

Когда будет 6-я серия?
[Профиль] [ЛС]

Klёпa ®

Стаж: 3 года 2 месяца

Сообщений: 906

Пост 07-Мар-2015 13:17 (спустя 1 день 12 часов)

[Цитировать]

Добавлена 6 серия!
[Профиль] [ЛС]

yukika

Стаж: 3 года 10 месяцев

Сообщений: 3

Пост 02-Апр-2015 14:42 (спустя 26 дней)

[Цитировать]

спасибо ! а когда продолжение?? почему 7серию недобавляете??
[Профиль] [ЛС]

Хиджиката Тоширо

Стаж: 3 года 9 месяцев

Сообщений: 54

Пост 26-Апр-2015 21:13 (спустя 24 дня)

[Цитировать]

Огромное спасибо ^^
[Профиль] [ЛС]

dusy78

Стаж: 3 года 10 месяцев

Сообщений: 1005

Откуда: Россия

Пост 21-Май-2015 06:48 (спустя 24 дня)

[Цитировать]

Добавлены 7-8 серии!
[Профиль] [ЛС]

dusy78

Стаж: 3 года 10 месяцев

Сообщений: 1005

Откуда: Россия

Пост 17-Сен-2015 17:09 (спустя 3 месяца 27 дней)

[Цитировать]

Добавлены заключительные серии!
[Профиль] [ЛС]

simka

Стаж: 3 года 10 месяцев

Сообщений: 94

Пост 17-Сен-2015 18:18 (спустя 1 час 8 минут)

[Цитировать]

Спасибо вам за "спасибо"

_________________

.


Слава-Україна! Героям-Слава!
[Профиль] [ЛС]

kaetana

Стаж: 1 год 7 месяцев

Сообщений: 14

Пост 26-Ноя-2015 19:48 (спустя 2 месяца 9 дней)

[Цитировать]

СПАСИБО !!
[Профиль] [ЛС]

vikkur

Стаж: 2 года 1 месяц

Сообщений: 3

Откуда: Киев, Украина

Пост 25-Фев-2016 11:54 (спустя 2 месяца 28 дней)

[Цитировать]

СПАСИБО! СПАСИБО! СПАСИБО! Давно ожидала єту дораму, оставлю ее на выходные, что б получить бодрый заряд и массу впечатлений!

_________________
"хочешь летать как бабочка, не маши крыльями как ворона" (япон.)
[Профиль] [ЛС]
Показать сообщения:    
Ответить на тему

Текущее время: Сегодня 02:00

Часовой пояс: GMT



Вы не можете начинать темы
Вы не можете отвечать на сообщения
Вы не можете редактировать свои сообщения
Вы не можете удалять свои сообщения
Вы не можете голосовать в опросах
Вы не можете прикреплять файлы к сообщениям
Вы не можете скачивать файлы