Жалобы на работу трекера ! прошу сюда :)

Спасибо / Thank You [16/16] (Ли Дже Дон) [2007, мелодрама, романтика, TVRip] [360p] DVO GREEN TEA

Ответить на тему
 
Автор Сообщение

Klёпa ®

Стаж: 3 года 2 месяца

Сообщений: 906

Пост 28-Окт-2014 22:05

[Цитировать]

Спасибо
Thank You (We Were There)


Год выпуска: 2007
Страна: Южная Корея
Жанр: мелодрама, романтика
Продолжительность: 16 серий по ~60 мин.
Серий: 1-16 (16)-Перевод:
закадровый (двухголосый) Людмила Линькова, Валерий Феодосов (1-3 серии) и Владимир Полупанов (с 4 серии)
Сэмпл: https://yadi.sk/i/
-Режиссер: Ли Дже Дон (Lee Jae Dong / 이재동)
Сценарист: Ли Гён Хи (Lee Kyung Hee / 이경희)
В ролях:
Чан Хёк (Jang Hyuk / 장혁) - Мин Ги Со
Гон Хё Джин (Gong Hyo Jin / 공효진) - Ли Ён Шин
Син Сон Рок (Shin Sung Rok / 신성록) - Чхве Сок Хён
Ким Сон Ын (Kim Sung Eun / 김성은) - Су Ын Хи
Со Син Э (Seo Shin Ae / 서신애) - Ли Бом, дочь Ён Шин
Син Гу (Shin Goo / 신구) - мистер Ли, дедушка Ён Шин
Рю Сын Су (Ryu Seung Soo / 류승수) - доктор О Чжон Су
Гиль Ён У (Kil Yong Woo / 길용우) - Мин Чжун Хо
Хон Ё Джин (Hong Yeo Jin / 홍여진) - Кан Хэ Чжон
и др.
-Описание:
Ёншин тихо и мирно живет на маленьком острове вместе со своим слабоумным дедушкой и дочерью, больной СПИДом. Вскоре, после смерти своей возлюбленной, на остров приезжает Мин Гисы, который будучи известным в Сеуле хирургом, не в силах был её спасти. За грубостью и хамством, Гисы старается спрятать своё отчаяние и бессилие что-либо изменить. Сняв комнату в доме Ёншин и постепенно проникаясь к ней чувствами, он не понимает, что чувствует... любовь или просто привязанность. Их отношения начинают постепенно развиваться, но в это же самое время на остров приезжает Сокхён, биологический отец дочери Ёншин, Ли Бом. Он планирует строить на острове отель…
-Доп. информация:
Релиз подготовлен группой GREEN TEA
Перевод RG Translators
Работа со звуком: Людмила Линькова
Оформление постера: Дина Фаткуллина-Качество: HDRip
Формат: AVI
Видео кодек: xvid
Аудио кодек: MP3
Видео: 624х352, ~1260 Кбит/с, 29.97 fps
Аудио: 48 kHz, 128 Кбит/c, 2 канала
!!! Альтернативная раздача: 720p (AVI, XviD)
ОСТ к дораме СпасибоДобавлены заключительные серии

MediaInfo

Код:
General
Format                                   : MPEG-4 Visual
Format profile                           : Advanced Simple@L5
Format settings, BVOP                    : 2
Format settings, QPel                    : No
Format settings, GMC                     : No warppoints
Format settings, Matrix                  : Default (MPEG)
Codec ID                                 : XVID
Codec ID/Hint                            : XviD
Duration                                 : 1h 7mn
Bit rate                                 : 1 259 Kbps
Width                                    : 624 pixels
Height                                   : 352 pixels
Display aspect ratio                     : 16:9
Frame rate                               : 29.970 fps
Color space                              : YUV
Chroma subsampling                       : 4:2:0
Bit depth                                : 8 bits
Scan type                                : Progressive
Compression mode                         : Lossy
Bits/(Pixel*Frame)                       : 0.191
Stream size                              : 611 MiB (90%)
Writing library                          : XviD 1.2.1 (UTC 2008-12-04)
Audio
ID                                       : 1
Format                                   : MPEG Audio
Format version                           : Version 1
Format profile                           : Layer 3
Mode                                     : Joint stereo
Mode extension                           : MS Stereo
Codec ID                                 : 55
Codec ID/Hint                            : MP3
Duration                                 : 1h 7mn
Bit rate mode                            : Constant
Bit rate                                 : 128 Kbps
Channel(s)                               : 2 channels
Sampling rate                            : 48.0 KHz
Compression mode                         : Lossy
Stream size                              : 62.1 MiB (9%)
Alignment                                : Aligned on interleaves
Interleave, duration                     : 33 ms (1.00 video frame)
Interleave, preload duration             : 504 ms
Title                                    : GREEN TEA DVO

Скриншоты




Последний раз редактировалось: Klёпa (2015-01-09 03:37), всего редактировалось 7 раз(а)
[Профиль] [ЛС]

Klёпa ®

Стаж: 3 года 2 месяца

Сообщений: 906

Пост 18-Ноя-2014 05:57 (спустя 20 дней)

[Цитировать]

Добавлена 2 серия!
[Профиль] [ЛС]

Klёпa ®

Стаж: 3 года 2 месяца

Сообщений: 906

Пост 06-Дек-2014 15:14 (спустя 18 дней)

[Цитировать]

Добавлена 3 серия!
[Профиль] [ЛС]

Klёпa ®

Стаж: 3 года 2 месяца

Сообщений: 906

Пост 08-Дек-2014 00:34 (спустя 1 день 9 часов)

[Цитировать]

Добавлена 4 серия!
[Профиль] [ЛС]

Klёпa ®

Стаж: 3 года 2 месяца

Сообщений: 906

Пост 15-Дек-2014 19:28 (спустя 7 дней)

[Цитировать]

Добавлена 5 серия!
[Профиль] [ЛС]

Klёпa ®

Стаж: 3 года 2 месяца

Сообщений: 906

Пост 09-Янв-2015 03:27 (спустя 24 дня)

[Цитировать]

Добавлена 6 серия!
[Профиль] [ЛС]

dusy78

Стаж: 3 года 10 месяцев

Сообщений: 1005

Откуда: Россия

Пост 21-Май-2015 06:20 (спустя 4 месяца 12 дней)

[Цитировать]

Добавлены 7-8 серии!
[Профиль] [ЛС]

Melind@

Стаж: 3 года 1 месяц

Сообщений: 79

Пост 11-Сен-2015 13:47 (спустя 3 месяца 21 день)

[Цитировать]

Большое спасибо! С нетерпением ждем финального обновления :)
[Профиль] [ЛС]

dusy78

Стаж: 3 года 10 месяцев

Сообщений: 1005

Откуда: Россия

Пост 17-Сен-2015 17:25 (спустя 6 дней)

[Цитировать]

Добавлены заключительные серии!
[Профиль] [ЛС]

Мия

Стаж: 3 года 10 месяцев

Сообщений: 15

Пост 15-Окт-2015 12:42 (спустя 27 дней)

[Цитировать]

Спасибо
[Профиль] [ЛС]
Показать сообщения:    
Ответить на тему

Текущее время: Сегодня 03:49

Часовой пояс: GMT



Вы не можете начинать темы
Вы не можете отвечать на сообщения
Вы не можете редактировать свои сообщения
Вы не можете удалять свои сообщения
Вы не можете голосовать в опросах
Вы не можете прикреплять файлы к сообщениям
Вы не можете скачивать файлы