Жалобы на работу трекера ! прошу сюда :)

Гордость и предубеждение / Pride and Prejudice / Omangwa Pyungyeon (Lee Hyun Joo) [21/21] [2014 г., Драма, романтика, кримина, TVRip] [360] DVO GREEN TEA

Страницы :  1, 2  След.

Ответить на тему
 
Автор Сообщение

dusy78 ®

Стаж: 3 года 10 месяцев

Сообщений: 1005

Откуда: Россия

Пост 02-Ноя-2014 07:42

[Цитировать]

Гордость и предубеждение
Pride and Prejudice / Omangwa Pyungyeon
Год выпуска: 2014
Страна: Южная Корея
Жанр: Драма, романтика, криминал
Продолжительность: 21 / 21
Озвучивание: Юлия Балиева и Петр Слепцов
СЕМПЛ: https://yadi.sk/i/ii0mJeJ6cSXHV
Режиссер: Lee Hyun Joo
В ролях:
Чхве Чжин Хёк - Ку Дон Чи
Пэк Чжин Хи - Хан Ёль Му
Чхве Ву Сик - Ли Чан Вон
Описание: История любви прокуроров и их противостояния надменному миру и предвзятым прокурорам.
Доп. информация:
Перевод: фсг "Мания"
Релиз группы GREEN TEA
Оформление постера и работа со звуком: Ольга Гринтиева
Качество: TVRip
Формат: AVI
Видео кодек: XviD
Аудио кодек: MP3
Видео: 624x352, ~1450 Кбит/с, 29.97 fps
Аудио: 192 Кбит/с, 48.0 КHz, 2 канала
Альтернативная раздача 1280х720
ОСТ к дораме Гордость и предубеждение

Скриншоты

MediaInfo

General
Complete name : J:\Рабочая для текущих релизов\Гордость и предубеждение\[GREEN TEA] Гордость и предубеждение 360р\[GREEN TEA] Гордость и предубеждение 360р ep.01.avi
Format : AVI
Format/Info : Audio Video Interleave
File size : 698 MiB
Duration : 59mn 14s
Overall bit rate : 1 647 Kbps
Writing application : VirtualDubMod 1.5.10.2 (build 2542/release)
Writing library : VirtualDubMod build 2542/release
Video
ID : 0
Format : xvid
Codec ID : xvid
Duration : 59mn 14s
Bit rate : 1 444 Kbps
Width : 624 pixels
Height : 352 pixels
Display aspect ratio : 16:9
Frame rate : 29.970 fps
Bits/(Pixel*Frame) : 0.219
Stream size : 612 MiB (88%)
Audio
ID : 1
Format : MPEG Audio
Format version : Version 1
Format profile : Layer 3
Mode : Joint stereo
Codec ID : 55
Codec ID/Hint : MP3
Duration : 59mn 14s
Bit rate mode : Constant
Bit rate : 192 Kbps
Channel(s) : 2 channels
Sampling rate : 48.0 KHz
Compression mode : Lossy
Stream size : 81.3 MiB (12%)
Alignment : Aligned on interleaves
Interleave, duration : 33 ms (1.00 video frame)
Добавлены заключительные серии!


Последний раз редактировалось: dusy78 (2015-10-20 11:45), всего редактировалось 10 раз(а)
[Профиль] [ЛС]

dusy78 ®

Стаж: 3 года 10 месяцев

Сообщений: 1005

Откуда: Россия

Пост 06-Ноя-2014 13:27 (спустя 4 дня)

[Цитировать]

Добавлена 2 серия!
[Профиль] [ЛС]

j_777

Стаж: 3 года 9 месяцев

Сообщений: 302

Пост 07-Ноя-2014 02:26 (спустя 12 часов)

[Цитировать]

Спасибо огромное, что взялись за озвучку этой дорамы!
[Профиль] [ЛС]

dusy78 ®

Стаж: 3 года 10 месяцев

Сообщений: 1005

Откуда: Россия

Пост 12-Ноя-2014 07:14 (спустя 5 дней)

[Цитировать]

Добавлена 3 серия!
[Профиль] [ЛС]

j_777

Стаж: 3 года 9 месяцев

Сообщений: 302

Пост 12-Ноя-2014 12:16 (спустя 5 часов)

[Цитировать]

Спасибо!!!!
[Профиль] [ЛС]

AlexStarRu

Стаж: 3 года 9 месяцев

Сообщений: 149

Пост 13-Ноя-2014 17:00 (спустя 1 день 4 часа)

[Цитировать]

Драма, романтика, кримина
:)
[Профиль] [ЛС]

dusy78 ®

Стаж: 3 года 10 месяцев

Сообщений: 1005

Откуда: Россия

Пост 13-Ноя-2014 17:45 (спустя 45 минут)

[Цитировать]

AlexStarRu, bk бывает
[Профиль] [ЛС]

dusy78 ®

Стаж: 3 года 10 месяцев

Сообщений: 1005

Откуда: Россия

Пост 17-Ноя-2014 18:44 (спустя 4 дня)

[Цитировать]

Добавлена 4 серия!
[Профиль] [ЛС]

Cinnamonphotos

Стаж: 2 года 1 месяц

Сообщений: 1

Пост 19-Ноя-2014 19:43 (спустя 2 дня)

[Цитировать]

Добавлена 4 серия!
а почему 4серия не добавлена в альтернативную расдачу 720 р?
[Профиль] [ЛС]

assiya

Стаж: 2 года

Сообщений: 1

Пост 21-Ноя-2014 18:01 (спустя 1 день 22 часа)

[Цитировать]

спасибо вам час посмотрю.
[Профиль] [ЛС]

dusy78 ®

Стаж: 3 года 10 месяцев

Сообщений: 1005

Откуда: Россия

Пост 24-Ноя-2014 19:25 (спустя 3 дня)

[Цитировать]

Добавлена 5 серия!
[Профиль] [ЛС]

dusy78 ®

Стаж: 3 года 10 месяцев

Сообщений: 1005

Откуда: Россия

Пост 27-Ноя-2014 18:43 (спустя 2 дня 23 часа)

[Цитировать]

Добавлена 6 серия!
[Профиль] [ЛС]

dusy78 ®

Стаж: 3 года 10 месяцев

Сообщений: 1005

Откуда: Россия

Пост 09-Дек-2014 19:18 (спустя 12 дней)

[Цитировать]

Добавлена 7 серия!
[Профиль] [ЛС]

AlexStarRu

Стаж: 3 года 9 месяцев

Сообщений: 149

Пост 20-Дек-2014 16:02 (спустя 10 дней)

[Цитировать]

Название уж очень классическое :)
"Где-то я это уже слышал" :)
http://en.wikipedia.org/wiki/Pride_and_Prejudice
[Профиль] [ЛС]

dusy78 ®

Стаж: 3 года 10 месяцев

Сообщений: 1005

Откуда: Россия

Пост 22-Дек-2014 16:55 (спустя 2 дня)

[Цитировать]

Добавлена 8 серия!
[Профиль] [ЛС]
Показать сообщения:    
Ответить на тему

Текущее время: Сегодня 14:09

Часовой пояс: GMT



Вы не можете начинать темы
Вы не можете отвечать на сообщения
Вы не можете редактировать свои сообщения
Вы не можете удалять свои сообщения
Вы не можете голосовать в опросах
Вы не можете прикреплять файлы к сообщениям
Вы не можете скачивать файлы