Жалобы на работу трекера ! прошу сюда :)

Мэри не ночевала дома / Мэ Ри, где же ты была всю ночь? / Mary Stayed Out All Night / Marry Me Mary (Хон Сок Гу /Hong Suk Goo) [16/16] [2010 г., Романтика, комедия, музыкальный, HDTVRip] [720] DVO GREEN TEA & AniPower

Ответить на тему
 
Автор Сообщение

dusy78 ®

Стаж: 3 года 10 месяцев

Сообщений: 1005

Откуда: Россия

Пост 02-Ноя-2014 15:09

[Цитировать]

Мэри не ночевала дома / Мэ Ри, где же ты была всю ночь?
Mary Stayed Out All Night / Marry Me Mary
Год выпуска: 2010
Страна: Южная Корея
Жанр: Романтика, комедия, музыкальный
Продолжительность: 16/16
Озвучивание: lama и metalrus
Семпл: https://yadi.sk/i/j7h9gVeOcSyDK
Режиссер: Хон Сок Гу /Hong Suk Goo
В ролях: Мун Гын Ён /Moon Geun Young в роли Ви Мэ Ри
Чжан Гын Сок /Jang Keun Suk в роли Кан Му Гёля
Ким Чжэ Вук /Kim Jae Wook в роли Пён Чжон Ина
Ким Хё Чжин /Kim Hyo Jin в роли Со Чжун
Пак Сан Мён /Park Sang Myun в роли отца Мэ Ри
Описание: Ви Дэ Хан - отец Ви Мэ Ри - неудавшийся бизнесмен, который по уши погряз в долгах. Он находится в постоянных бегах от кредиторов. Но девушка не унывает – всячески старается поддержать своего нерадивого отца.
Недавно она познакомилась с талантливым вокалистом инди-группы Кан Му Гёлем и очень сдружилась с ним, несмотря на то, что при первой встрече чуть не переехала его автомобилем.
Тем временем, отец Мэ Ри встречает своего старого товарища Чжон Сока, который решает протянуть руку помощи и спасти от долгов друга. Но это еще не все… Чжон Сок, когда-то был тайно влюблен в мать девушки и он решает, во что бы то ни стало, женить своего сына Чжон Ина (кстати, очень даже привлекательного и интересного молодого человека) на нашей героине. Ви Дэ Хан загорается этой идеей: еще бы – породниться с преуспевающим бизнесменом и устроить жизнь своей единственной дочери…
Но ... не тут-то было - надо еще получить согласие самой Мэ Ри. А девушка воспротивилась! В отчаянии она просит Му Гёля изобразить ее мужа, чтобы избежать брака с Чжон Ином. Ее план сработал. Но находчивый отец придумывает свой план - он заключает 100-дневный договор, по условиям которого Мэ Ри должна встречаться сразу с двумя молодыми людьми. Причем распределять время между ними поровну и только после этого сделать выбор - за кого ей выйти замуж …
Ост к дораме: Мэри не ночевала дома
Альтернативная раздача 624x352
Доп. информация:
Релиз от группы GREEN TEA совмесно с AniPower
Субтитры: фансаб группы Мания
Работа над звуком: spellhowler, metalrus
Тайминг: spellhowler
Качество: HDTVRip
Формат: MKV
Аудио кодек: MP3
Видео: 3 000 Kbps, 1280х720, 29.970 fps
Аудио: 192 Кбит/с, 48.0 КHz, 2 канала

MediaInfo

General
Unique ID : 199069599286996394398167762681387458726 (0x95C36904BA777054A118EFEB4A62A0A6)
Complete name : J:\Архив GREEN TEA\Mary Stayed Out All Night (720)\Mary Stayed Out All Night (720)_01.mkv
Format : Matroska
Format version : Version 2
File size : 1.47 GiB
Duration : 1h 5mn
Overall bit rate : 3 194 Kbps
Encoded date : UTC 2014-11-01 06:12:31
Writing application : mkvmerge v5.5.0 ('Healer') built on Apr 6 2012 21:43:24
Writing library : libebml v1.2.3 + libmatroska v1.3.0
Video
ID : 1
Format : AVC
Format/Info : Advanced Video Codec
Format profile : High@L4.0
Format settings, CABAC : Yes
Format settings, ReFrames : 8 frames
Muxing mode : Header stripping
Codec ID : V_MPEG4/ISO/AVC
Duration : 1h 5mn
Bit rate : 3 000 Kbps
Width : 1 280 pixels
Height : 720 pixels
Display aspect ratio : 16:9
Frame rate mode : Constant
Frame rate : 29.970 fps
Color space : YUV
Chroma subsampling : 4:2:0
Bit depth : 8 bits
Scan type : Progressive
Bits/(Pixel*Frame) : 0.109
Stream size : 1.35 GiB (92%)
Writing library : x264 core 107 r1745+311 2317302
Encoding settings : cabac=1 / ref=8 / deblock=1:-1:-1 / analyse=0x3:0x133 / me=umh / subme=7 / psy=1 / fade_compensate=0.00 / psy_rd=1.00:0.00 / mixed_ref=1 / me_range=16 / chroma_me=1 / trellis=2 / 8x8dct=1 / cqm=0 / deadzone=21,11 / fast_pskip=1 / chroma_qp_offset=-2 / threads=3 / sliced_threads=0 / nr=0 / decimate=1 / interlaced=0 / constrained_intra=0 / fgo=0 / bframes=3 / b_pyramid=2 / b_adapt=2 / b_bias=0 / direct=3 / weightb=1 / open_gop=0 / weightp=2 / keyint=250 / keyint_min=25 / scenecut=40 / intra_refresh=0 / rc_lookahead=40 / rc=2pass / mbtree=1 / bitrate=3000 / ratetol=1.0 / qcomp=0.60 / qpmin=10 / qpmax=51 / qpstep=4 / cplxblur=20.0 / qblur=0.5 / ip_ratio=1.40 / aq=1:1.00
Default : Yes
Forced : No
Audio
ID : 2
Format : MPEG Audio
Format version : Version 1
Format profile : Layer 3
Mode : Joint stereo
Muxing mode : Header stripping
Codec ID : A_MPEG/L3
Codec ID/Hint : MP3
Duration : 1h 5mn
Bit rate mode : Constant
Bit rate : 192 Kbps
Channel(s) : 2 channels
Sampling rate : 48.0 KHz
Compression mode : Lossy
Delay relative to video : 1s 180ms
Stream size : 90.3 MiB (6%)
Default : Yes
Forced : No


Последний раз редактировалось: dusy78 (2014-11-05 13:25), всего редактировалось 1 раз
[Профиль] [ЛС]

HAwkey

Стаж: 2 года 11 месяцев

Сообщений: 18

Пост 03-Ноя-2014 19:26 (спустя 1 день 4 часа)

[Цитировать]

Чуваки - дайте скачать...
[Профиль] [ЛС]

dusy78 ®

Стаж: 3 года 10 месяцев

Сообщений: 1005

Откуда: Россия

Пост 05-Ноя-2014 19:45 (спустя 2 дня)

[Цитировать]

Уважаемые зрители! Кто скачает сериал останьтесь на раздаче, пожалуйста!
[Профиль] [ЛС]

alavign

Стаж: 2 года 1 месяц

Сообщений: 1

Пост 07-Ноя-2014 12:58 (спустя 1 день 17 часов)

[Цитировать]

Дайте скорости плиззззз
[Профиль] [ЛС]

HAwkey

Стаж: 2 года 11 месяцев

Сообщений: 18

Пост 11-Ноя-2014 13:15 (спустя 4 дня)

[Цитировать]

Чуваки спасибо большое - скачал !!!
Прикольный кинчик !!!
Озвучка на высоте !!!
[Профиль] [ЛС]

dusy78 ®

Стаж: 3 года 10 месяцев

Сообщений: 1005

Откуда: Россия

Пост 11-Ноя-2014 13:18 (спустя 2 минуты)

[Цитировать]

HAwkey, останьтесь на раздаче как можно дольше, пожалуйста!!!!
[Профиль] [ЛС]

HAwkey

Стаж: 2 года 11 месяцев

Сообщений: 18

Пост 11-Ноя-2014 13:27 (спустя 9 минут)

[Цитировать]

Да чуть не забыл - качество картинки СУПЕР !!!
Цвета радуют глаз - в общем один позитив !!!
Актеры приятные - любо-дорого смотреть !!!
Не то, что в сериале ЧЕРНОБЫЛЬ - скачал, включил,
увидел эти тупые рожи, выключил и удалил в
расстроенных чувствах.
[Профиль] [ЛС]

selbiak

Стаж: 1 год 6 месяцев

Сообщений: 1

Пост 26-Май-2015 11:22 (спустя 6 месяцев 14 дней)

[Цитировать]

я не могу скачать у меня фалй скачивает как нужно сделать скажите кто нибудь
[Профиль] [ЛС]

dusy78 ®

Стаж: 3 года 10 месяцев

Сообщений: 1005

Откуда: Россия

Пост 26-Май-2015 13:52 (спустя 2 часа 30 минут)

[Цитировать]

selbiak, http://tracker.green-tea.tv/viewtopic.php?t=72 посмотрите здесь, надеюсь информация поможет
[Профиль] [ЛС]

keoru

Стаж: 1 год 6 месяцев

Сообщений: 5

Пост 03-Дек-2015 19:41 (спустя 6 месяцев 8 дней)

[Цитировать]

хороший сериал... отличный сериал... хотя такое повиновение детей своим родителям очень удивляет и даже возмущает.
Ч.Г.С. - очень милая мордочка)))
[Профиль] [ЛС]

oksana1978

Стаж: 8 месяцев 22 дня

Сообщений: 3

Пост 17-Мар-2016 10:41 (спустя 3 месяца 13 дней)

[Цитировать]

супер. очень понравился этот сериал
[Профиль] [ЛС]

ЛяЛька

Стаж: 1 год 5 месяцев

Сообщений: 1

Пост 04-Май-2016 19:10 (спустя 1 месяц 18 дней)

[Цитировать]

Товарисчи :)
Встаньте кто-нибудь на раздачу. Хочется скачать этот замечательный сериал в хорошем качестве.
Заранее спасибо ***
[Профиль] [ЛС]
Показать сообщения:    
Ответить на тему

Текущее время: Сегодня 16:01

Часовой пояс: GMT



Вы не можете начинать темы
Вы не можете отвечать на сообщения
Вы не можете редактировать свои сообщения
Вы не можете удалять свои сообщения
Вы не можете голосовать в опросах
Вы не можете прикреплять файлы к сообщениям
Вы не можете скачивать файлы