Жалобы на работу трекера ! прошу сюда :)

Мой секретный отель / Отель с секретами / Mai Sikeurit Hotel / My Secret Hotel (Hong Jong Chan) [16/16] [2014 г., романтика, комедия, детектив, TVRip] [360p] DVO GREEN TEA

Ответить на тему
 
Автор Сообщение

dusy78 ®

Стаж: 3 года 10 месяцев

Сообщений: 1005

Откуда: Россия

Пост 17-Ноя-2014 11:22

[Цитировать]

Мой секретный отель / Отель с секретами
Mai Sikeurit Hotel / My Secret Hotel

Год выпуска: 2014
Страна: Южная Корея
Жанр: романтика, комедия, детектив
Продолжительность: 16/16
Озвучивание: Михаил Чёрный и Юлия Балиева
СЕМПЛ: https://yadi.sk/i/U4cSBMjeckuQU
Режиссер: Hong Jong Chan
В ролях:
Ю Ин На в роли Нам Сан Хё
Нам Гу Мин в роли Чо Сон Гём
Чжин И Хан в роли Гу Хэ Ён
Описание: Главная героиня дорамы - свадебный распорядитель или как еще называют свадебный координатор в одном из роскошных отелей, где происходит загадочное убийство. Расследование которого будет проходить на фоне романтических отношений между героиней, ее бывшем мужем и новым бойфрендом...
Доп. информация:
Перевод: фсг "Мания"
Релиз группы GREEN TEA
Оформление постера: Елена Горборукова
Работа со звуком: Ольга Гринтиева
Качество: TVRip
Формат: AVI
Видео кодек: DivX
Аудио кодек: MP3
Видео: 624х352, ~1400 Kbps, 29.970 fps
Аудио: 48 kHz, 192 Кбит/с, 2 канала
ОСТ к дораме Мой секретный отель
Альтернативная раздача 1280х720

Скриншоты

MediaInfo

General
Complete name : J:\Архив GREEN TEA\[GREEN TEA] Мой секретный отель 360р\[GREEN TEA] Мой секретный отель_01_360.avi
Format : AVI
Format/Info : Audio Video Interleave
File size : 755 MiB
Duration : 1h 6mn
Overall bit rate : 1 598 Kbps
Writing application : VirtualDubMod 1.5.10.2 (build 2542/release)
Writing library : VirtualDubMod build 2542/release
Video
ID : 0
Format : MPEG-4 Visual
Format profile : Simple@L3
Format settings, BVOP : No
Format settings, QPel : No
Format settings, GMC : No warppoints
Format settings, Matrix : Default (H.263)
Codec ID : DX50
Codec ID/Hint : DivX 5
Duration : 1h 6mn
Bit rate : 1 395 Kbps
Width : 624 pixels
Height : 352 pixels
Display aspect ratio : 16:9
Frame rate : 29.970 fps
Color space : YUV
Chroma subsampling : 4:2:0
Bit depth : 8 bits
Scan type : Progressive
Compression mode : Lossy
Bits/(Pixel*Frame) : 0.212
Stream size : 659 MiB (87%)
Writing library : XviD 64
Audio
ID : 1
Format : MPEG Audio
Format version : Version 1
Format profile : Layer 3
Codec ID : 55
Codec ID/Hint : MP3
Duration : 1h 6mn
Bit rate mode : Constant
Bit rate : 192 Kbps
Channel(s) : 2 channels
Sampling rate : 48.0 KHz
Compression mode : Lossy
Stream size : 90.7 MiB (12%)
Alignment : Aligned on interleaves
Interleave, duration : 33 ms (1.00 video frame)
Interleave, preload duration : 504 ms


Последний раз редактировалось: dusy78 (2014-11-22 04:34), всего редактировалось 2 раз(а)
[Профиль] [ЛС]

j_777

Стаж: 3 года 9 месяцев

Сообщений: 302

Пост 17-Ноя-2014 12:10 (спустя 48 минут)

[Цитировать]

Спасибо огромное за меньший размер!
[Профиль] [ЛС]

limitana

Стаж: 3 года 10 месяцев

Сообщений: 153

Пост 19-Ноя-2014 19:19 (спустя 2 дня 7 часов)

[Цитировать]

И от меня -такое же огромное спасибо!
[Профиль] [ЛС]

konspirator1985

Стаж: 3 года 10 месяцев

Сообщений: 45

Пост 20-Ноя-2014 17:52 (спустя 22 часа)

[Цитировать]

Спасибо, очень ждала малый размер, чтобы скачать и посмотреть. Тем более отзывы положительные, после просмотра поделюсь впечатлением.
[Профиль] [ЛС]

Эржена

Стаж: 2 года

Сообщений: 1

Пост 05-Дек-2014 15:59 (спустя 14 дней)

[Цитировать]

скачивание платное?
[Профиль] [ЛС]

konspirator1985

Стаж: 3 года 10 месяцев

Сообщений: 45

Пост 05-Дек-2014 16:18 (спустя 19 минут)

[Цитировать]

Эржена, нет, бесплатно...
Как раз смотрю эту дораму. Очень и очень нравится, даже не знаю за кого больше переживать и болеть. С кем бы не осталась главная героиня второго будет жаль.
[Профиль] [ЛС]
Показать сообщения:    
Ответить на тему

Текущее время: Сегодня 14:07

Часовой пояс: GMT



Вы не можете начинать темы
Вы не можете отвечать на сообщения
Вы не можете редактировать свои сообщения
Вы не можете удалять свои сообщения
Вы не можете голосовать в опросах
Вы не можете прикреплять файлы к сообщениям
Вы не можете скачивать файлы