Жалобы на работу трекера ! прошу сюда :)

Мистер Бэк / Mister Back (Lee Jae Dong) [16/16] [2014 г., романтика, комедия, фэнтази, TVRip] [360] VO GREEN TEA

Страницы :  1, 2  След.

Ответить на тему
 
Автор Сообщение

dusy78 ®

Стаж: 3 года 10 месяцев

Сообщений: 1005

Откуда: Россия

Пост 19-Ноя-2014 09:34

[Цитировать]

Мистер Бэк / Mister Back Год выпуска: 2014
Страна: Южная Корея
Жанр: романтика, комедия, фэнтази
Продолжительность: 16/16
Озвучивание: Светлана Дмитриева
СЕМПЛ: https://yadi.sk/i/F5pCeNEOcoPqz
Режиссер: Lee Jae Dong
В ролях:
Шин Ха Кён
Чан На Ра
Ли Джун
Чон Сок Вон
Описание: Мы увидим историю одного 70-летнего хозяина отеля, который большего всего в жизни любит две вещи: себя и деньги. Однако судьба подарит этому престарелому нарциссу-скряге второй шанс, и он вдруг помолодеет на 40 лет. Теперь ему придётся стать мальчишкой на побегушках и трудиться в отделе обслуживания номеров. Если повезёт, может, хоть ума наберётся и влюбится в какую-нибудь девушку. Кто знает?..
Релиз группы GREEN TEA
Оформление постера и работа со звуком: Ольга Гринтиева
Качество: TVRip
Формат: AVI
Видео кодек: XviD
Аудио кодек: MP3
Видео: 624х352, ~1450 Kbps, 29.970 fps
Аудио: 192.00 kbps , 2 ch , 48 kHz
!!! Альтернативная раздача 1280х720
ОСТ к дораме Мистер Бэк

MediaInfo

General
Complete name : F:\Рабочая!!!1\Мистер Бэк\[GREEN TEA] Мистер Бэк (360)\01 серия.avi
Format : AVI
Format/Info : Audio Video Interleave
File size : 720 MiB
Duration : 1h 1mn
Overall bit rate : 1 649 Kbps
Writing application : VirtualDubMod 1.5.10.2 (build 2542/release)
Writing library : VirtualDubMod build 2542/release
Video
ID : 0
Format : xvid
Codec ID : xvid
Duration : 1h 1mn
Bit rate : 1 446 Kbps
Width : 624 pixels
Height : 352 pixels
Display aspect ratio : 16:9
Frame rate : 29.970 fps
Bits/(Pixel*Frame) : 0.220
Stream size : 631 MiB (88%)
Audio
ID : 1
Format : MPEG Audio
Format version : Version 1
Format profile : Layer 3
Mode : Joint stereo
Codec ID : 55
Codec ID/Hint : MP3
Duration : 1h 1mn
Bit rate mode : Constant
Bit rate : 192 Kbps
Channel(s) : 2 channels
Sampling rate : 48.0 KHz
Compression mode : Lossy
Stream size : 83.9 MiB (12%)
Alignment : Aligned on interleaves
Interleave, duration : 33 ms (1.00 video frame)
Interleave, preload duration : 504 ms
Добавлены 15-16 серии!


Последний раз редактировалось: dusy78 (2014-12-31 11:49), всего редактировалось 13 раз(а)
[Профиль] [ЛС]

Melind@

Стаж: 3 года 1 месяц

Сообщений: 79

Пост 20-Ноя-2014 14:11 (спустя 1 день 4 часа)

[Цитировать]

Спасибо за озвучку и отдельно за это качество))
[Профиль] [ЛС]

dusy78 ®

Стаж: 3 года 10 месяцев

Сообщений: 1005

Откуда: Россия

Пост 20-Ноя-2014 16:31 (спустя 2 часа 19 минут)

[Цитировать]

Добавлена 3 серия!
Melind@, всегда пожалуйста!
[Профиль] [ЛС]

dusy78 ®

Стаж: 3 года 10 месяцев

Сообщений: 1005

Откуда: Россия

Пост 23-Ноя-2014 20:11 (спустя 3 дня)

[Цитировать]

Добавлена 4 серия!
[Профиль] [ЛС]

Ланочка10_83

Стаж: 3 года 1 месяц

Сообщений: 131

Пост 24-Ноя-2014 03:22 (спустя 7 часов)

[Цитировать]

Спасибо! :)
[Профиль] [ЛС]

dusy78 ®

Стаж: 3 года 10 месяцев

Сообщений: 1005

Откуда: Россия

Пост 26-Ноя-2014 17:16 (спустя 2 дня 13 часов)

[Цитировать]

Добавлена 5 серия!
[Профиль] [ЛС]

dusy78 ®

Стаж: 3 года 10 месяцев

Сообщений: 1005

Откуда: Россия

Пост 27-Ноя-2014 18:53 (спустя 1 день 1 час)

[Цитировать]

Добавлена 6 серия!
[Профиль] [ЛС]

jek009

Стаж: 3 года 1 месяц

Сообщений: 10

Пост 01-Дек-2014 17:34 (спустя 3 дня)

[Цитировать]

а сюжетик то ничё
[Профиль] [ЛС]

dusy78 ®

Стаж: 3 года 10 месяцев

Сообщений: 1005

Откуда: Россия

Пост 04-Дек-2014 14:23 (спустя 2 дня 20 часов)

[Цитировать]

Добавлена 7 серия!
[Профиль] [ЛС]

dusy78 ®

Стаж: 3 года 10 месяцев

Сообщений: 1005

Откуда: Россия

Пост 05-Дек-2014 17:49 (спустя 1 день 3 часа)

[Цитировать]

Добавлена 8 серия!
[Профиль] [ЛС]

dusy78 ®

Стаж: 3 года 10 месяцев

Сообщений: 1005

Откуда: Россия

Пост 10-Дек-2014 14:47 (спустя 4 дня)

[Цитировать]

Добавлена 9 серия!
[Профиль] [ЛС]

dusy78 ®

Стаж: 3 года 10 месяцев

Сообщений: 1005

Откуда: Россия

Пост 11-Дек-2014 16:06 (спустя 1 день 1 час)

[Цитировать]

Добавлена 10 серия!
[Профиль] [ЛС]

dusy78 ®

Стаж: 3 года 10 месяцев

Сообщений: 1005

Откуда: Россия

Пост 18-Дек-2014 17:34 (спустя 7 дней)

[Цитировать]

Добавлена 11 серия!
[Профиль] [ЛС]

dusy78 ®

Стаж: 3 года 10 месяцев

Сообщений: 1005

Откуда: Россия

Пост 21-Дек-2014 12:27 (спустя 2 дня 18 часов)

[Цитировать]

Добавлена 12 серия!
[Профиль] [ЛС]

dusy78 ®

Стаж: 3 года 10 месяцев

Сообщений: 1005

Откуда: Россия

Пост 28-Дек-2014 12:40 (спустя 7 дней)

[Цитировать]

Добавлены 13-14 серии!
[Профиль] [ЛС]
Показать сообщения:    
Ответить на тему

Текущее время: Сегодня 22:22

Часовой пояс: GMT



Вы не можете начинать темы
Вы не можете отвечать на сообщения
Вы не можете редактировать свои сообщения
Вы не можете удалять свои сообщения
Вы не можете голосовать в опросах
Вы не можете прикреплять файлы к сообщениям
Вы не можете скачивать файлы