Жалобы на работу трекера ! прошу сюда :)

Пиноккио / Pinocchio / 피노키오 (Чо Су Вон (Jo Su Won)) [20/20] [2014 г., мелодрама, романтика, HDTVRip] [720] DVO GREEN TEA

Страницы :  1, 2, 3  След.

Ответить на тему
 
Автор Сообщение

dusy78 ®

Стаж: 3 года 10 месяцев

Сообщений: 1005

Откуда: Россия

Пост 29-Ноя-2014 21:43

[Цитировать]

Пиноккио
Pinocchio / 피노키오
Год выпуска: 2014
Страна: Южная Корея
Жанр: мелодрама, романтика
Продолжительность: 20/20
Озвучивание: Людмила Линькова и Ярослав Мельник
СЕМПЛ: https://yadi.sk/i/Y-izoVf5d36jt
Режиссер: Чо Су Вон (Jo Su Won)
В ролях:
Ли Чон Сок (Lee Jong Suk) - Чхве Даль По
Пак Шин Хе (Park Shin Hye) - Чхве Ин Ха
Ким Ён Кван (Kim Young Kwang) - Со Бом Чо
Ли Ю Би (Lee Yoo Bi) - Юн Ю Рэ
Ли Чжу Сын (Lee Joo Seung) - Ан Чан Су
Описание: Чхве Ин Ха - журналистка с "синдромом Пиноккио". Каждый раз, как она пытается соврать, ее выдает икота. Чхве Даль По - начинающий репортер с телеканала. Он красавчик, но это мало кто замечает из-за дурацкой прически и странной манеры одеваться. Но у него есть две важные для успеха черты - превосходная память и умение красиво говорить. Встретившись, эти двое влюбляются друг в друга.
Перевод описания: Харли
Доп. информация:
Релиз группы: GREEN TEA
Перевод: ФСГ Мания
Оформление постера: Дина Фаткуллина
Работа со звуком:
1-2 серии Ольга Гринтиева

с 3 серии Ярослав Мельник
Качество: HDTVRip
Формат: AVI
Видео кодек: H.264
Аудио кодек: MP3
Видео: ~ 2500 Kbps, 1280х720, 29.970 fps
Аудио: 48 kHz, 192 Кбит/с, 2 ch
Сериал озвучивается при поддержке зрителей GREEN TEA
ОСТ к дораме Пиноккио
!!! Альтернативная раздача 1912х1080
!!! Альтернативная раздача 640х360

Скриншоты

MediaInfo

General
Complete name : F:\Рабочая!!!1\Пиноккио\[GREEN TEA] Пиноккио (720)\[GREEN TEA] Пиноккио (720)ep.01.avi
Format : AVI
Format/Info : Audio Video Interleave
File size : 1.16 GiB
Duration : 59mn 36s
Overall bit rate : 2 792 Kbps
Writing application : VirtualDubMod 1.5.10.2 (build 2542/release)
Writing library : VirtualDubMod build 2542/release
Video
ID : 0
Format : AVC
Format/Info : Advanced Video Codec
Format profile : High@L5.1
Format settings, CABAC : Yes
Format settings, ReFrames : 6 frames
Codec ID : H264
Duration : 59mn 36s
Bit rate : 2 588 Kbps
Nominal bit rate : 2 429 Kbps
Width : 1 280 pixels
Height : 720 pixels
Display aspect ratio : 16:9
Frame rate : 29.970 fps
Color space : YUV
Chroma subsampling : 4:2:0
Bit depth : 8 bits
Scan type : Progressive
Bits/(Pixel*Frame) : 0.094
Stream size : 1.08 GiB (93%)
Writing library : x264 core 115 r2008kMod 4c552d8
Encoding settings : cabac=1 / ref=6 / deblock=1:0:0 / analyse=0x3:0x13 / me=umh / subme=7 / psy=1 / fade_compensate=0.00 / psy_rd=1.00:0.00 / mixed_ref=1 / me_range=16 / chroma_me=1 / trellis=1 / 8x8dct=1 / cqm=0 / deadzone=21,11 / fast_pskip=1 / chroma_qp_offset=-2 / threads=4 / sliced_threads=1 / slices=4 / nr=0 / decimate=1 / interlaced=0 / bluray_compat=0 / constrained_intra=0 / bframes=0 / weightp=2 / keyint=250 / keyint_min=25 / scenecut=40 / intra_refresh=0 / rc_lookahead=0 / rc=abr / mbtree=0 / bitrate=2429 / ratetol=1.0 / qcomp=0.60 / qpmin=10 / qpmax=51 / qpstep=4 / vbv_maxrate=3000 / vbv_bufsize=3000 / nal_hrd=none / ip_ratio=1.40 / aq=1:1.00
Audio
ID : 1
Format : MPEG Audio
Format version : Version 1
Format profile : Layer 3
Mode : Joint stereo
Codec ID : 55
Codec ID/Hint : MP3
Duration : 59mn 36s
Bit rate mode : Constant
Bit rate : 192 Kbps
Channel(s) : 2 channels
Sampling rate : 48.0 KHz
Compression mode : Lossy
Stream size : 81.9 MiB (7%)
Alignment : Aligned on interleaves
Interleave, duration : 33 ms (1.00 video frame)
Interleave, preload duration : 504 ms
Добавлены заключительные серии!


Последний раз редактировалось: dusy78 (2015-07-05 06:13), всего редактировалось 22 раз(а)
[Профиль] [ЛС]

Tainted-love

Стаж: 2 года 11 месяцев

Сообщений: 1180

Пост 30-Ноя-2014 03:15 (спустя 5 часов)

[Цитировать]

Какая великолепная новость!!! Спасибо что взялись озвучивать эту дораму... огромное спасибо. Удачи и... вдохновения в работе!!!
[Профиль] [ЛС]

Smoke312

Стаж: 2 года 10 месяцев

Сообщений: 2

Пост 30-Ноя-2014 12:16 (спустя 9 часов)

[Цитировать]

Да сколько это будет длиться премодерация?(
[Профиль] [ЛС]

dusy78 ®

Стаж: 3 года 10 месяцев

Сообщений: 1005

Откуда: Россия

Пост 01-Дек-2014 14:10 (спустя 1 день 1 час)

[Цитировать]

Добавлена 2 серия!
[Профиль] [ЛС]

rodqer

Стаж: 3 года 10 месяцев

Сообщений: 417

Откуда: кемерово

Пост 02-Дек-2014 07:18 (спустя 17 часов)

[Цитировать]

спасибо ураааа
[Профиль] [ЛС]

dusy78 ®

Стаж: 3 года 10 месяцев

Сообщений: 1005

Откуда: Россия

Пост 06-Дек-2014 06:37 (спустя 3 дня)

[Цитировать]

Добавлена 3 серия!
[Профиль] [ЛС]

dusy78 ®

Стаж: 3 года 10 месяцев

Сообщений: 1005

Откуда: Россия

Пост 12-Дек-2014 19:52 (спустя 6 дней)

[Цитировать]

Добавлена 4 серия!
[Профиль] [ЛС]

Tainted-love

Стаж: 2 года 11 месяцев

Сообщений: 1180

Пост 12-Дек-2014 21:05 (спустя 1 час 13 минут)

[Цитировать]

Как хорошо... спасибо... спасибо... спасибо огромное.
[Профиль] [ЛС]

dusy78 ®

Стаж: 3 года 10 месяцев

Сообщений: 1005

Откуда: Россия

Пост 14-Дек-2014 14:36 (спустя 1 день 17 часов)

[Цитировать]

Добавлена 5 серия!
[Профиль] [ЛС]

nephilim

Стаж: 2 года 6 месяцев

Сообщений: 2

Пост 14-Дек-2014 19:55 (спустя 5 часов)

[Цитировать]

включите, пожалуйста, раздачу на полную, сидеры)) охота сегодня посмотреть 4 и 5 серии
[Профиль] [ЛС]

Tainted-love

Стаж: 2 года 11 месяцев

Сообщений: 1180

Пост 15-Дек-2014 17:28 (спустя 21 час)

[Цитировать]

Спасибо за новую серию... спасибо.
[Профиль] [ЛС]

dusy78 ®

Стаж: 3 года 10 месяцев

Сообщений: 1005

Откуда: Россия

Пост 21-Дек-2014 13:48 (спустя 5 дней)

[Цитировать]

Добавлена 6 серия!
[Профиль] [ЛС]

Tainted-love

Стаж: 2 года 11 месяцев

Сообщений: 1180

Пост 02-Янв-2015 17:07 (спустя 12 дней)

[Цитировать]

С новым годом! С новым счастьем! Пусть радость, любовь и удача не покидает Вас никогда!
[Профиль] [ЛС]

dusy78 ®

Стаж: 3 года 10 месяцев

Сообщений: 1005

Откуда: Россия

Пост 15-Янв-2015 13:46 (спустя 12 дней)

[Цитировать]

Добавлена 7 серия!
[Профиль] [ЛС]

Tainted-love

Стаж: 2 года 11 месяцев

Сообщений: 1180

Пост 15-Янв-2015 20:30 (спустя 6 часов)

[Цитировать]

Спасибо!
[Профиль] [ЛС]
Показать сообщения:    
Ответить на тему

Текущее время: Сегодня 10:30

Часовой пояс: GMT



Вы не можете начинать темы
Вы не можете отвечать на сообщения
Вы не можете редактировать свои сообщения
Вы не можете удалять свои сообщения
Вы не можете голосовать в опросах
Вы не можете прикреплять файлы к сообщениям
Вы не можете скачивать файлы