Жалобы на работу трекера ! прошу сюда :)

Пиноккио / Pinocchio / 피노키오 (Чо Су Вон (Jo Su Won)) [20/20] [2014 г., мелодрама, романтика, TVRip] [360] DVO GREEN TEA

Страницы :  1, 2, 3, 4  След.

Ответить на тему
 
Автор Сообщение

dusy78 ®

Стаж: 3 года 10 месяцев

Сообщений: 1005

Откуда: Россия

Пост 30-Ноя-2014 05:31

[Цитировать]

Пиноккио
Pinocchio / 피노키오
Год выпуска: 2014
Страна: Южная Корея
Жанр: мелодрама, романтика
Продолжительность: 20/20
Озвучивание: Людмила Линькова и Ярослав Мельник
СЕМПЛ: https://yadi.sk/i/TyFkRDrtd3Cbn
Режиссер: Чо Су Вон (Jo Su Won)
В ролях:
Ли Чон Сок (Lee Jong Suk) - Чхве Даль По
Пак Шин Хе (Park Shin Hye) - Чхве Ин Ха
Ким Ён Кван (Kim Young Kwang) - Со Бом Чо
Ли Ю Би (Lee Yoo Bi) - Юн Ю Рэ
Ли Чжу Сын (Lee Joo Seung) - Ан Чан Су
Описание: Чхве Ин Ха - журналистка с "синдромом Пиноккио". Каждый раз, как она пытается соврать, ее выдает икота. Чхве Даль По - начинающий репортер с телеканала. Он красавчик, но это мало кто замечает из-за дурацкой прически и странной манеры одеваться. Но у него есть две важные для успеха черты - превосходная память и умение красиво говорить. Встретившись, эти двое влюбляются друг в друга.
Перевод описания: Харли
Доп. информация:
Релиз группы: GREEN TEA
Перевод: ФСГ Мания
Оформление постера: Дина Фаткуллина
Работа со звуком:
1-2 серии Ольга Гринтиева

с 3 серии Ярослав Мельник
Качество: TVRip
Формат: AVI
Видео кодек: XviD
Аудио кодек: MP3
Видео: 1 400 Kbps, 640х360, 29.970 fps
Аудио: 48 kHz, 192 Кбит/с, 2 ch
Сериал озвучивается при поддержке зрителей GREEN TEA
ОСТ к дораме Пиноккио
!!! Альтернативная раздача 1912х1080
!!! Альтернативная раздача 1280х720

Скриншоты

MediaInfo

General
Complete name : F:\Рабочая!!!1\Пиноккио\[GREEN TEA] Пиноккио (360)\[GREEN TEA] Пиноккио (360)ep.01.avi
Format : AVI
Format/Info : Audio Video Interleave
File size : 685 MiB
Duration : 59mn 36s
Overall bit rate mode : Variable
Overall bit rate : 1 606 Kbps
Writing application : VirtualDubMod 1.5.10.3 | www.virtualdub-fr.org || (build 2550/release)
Writing library : VirtualDubMod build 2550/release
Video
ID : 0
Format : MPEG-4 Visual
Format profile : Advanced Simple@L5
Format settings, BVOP : 2
Format settings, QPel : No
Format settings, GMC : No warppoints
Format settings, Matrix : Default (MPEG)
Codec ID : XVID
Codec ID/Hint : XviD
Duration : 59mn 36s
Bit rate : 1 400 Kbps
Width : 640 pixels
Height : 360 pixels
Display aspect ratio : 16:9
Frame rate : 29.970 fps
Color space : YUV
Chroma subsampling : 4:2:0
Bit depth : 8 bits
Scan type : Progressive
Compression mode : Lossy
Bits/(Pixel*Frame) : 0.203
Stream size : 597 MiB (87%)
Writing library : XviD 1.2.1 (UTC 2008-12-04)
Audio
ID : 1
Format : MPEG Audio
Format version : Version 1
Format profile : Layer 3
Mode : Joint stereo
Codec ID : 55
Codec ID/Hint : MP3
Duration : 59mn 36s
Bit rate mode : Variable
Bit rate : 192 Kbps
Channel(s) : 2 channels
Sampling rate : 48.0 KHz
Compression mode : Lossy
Stream size : 81.9 MiB (12%)
Alignment : Aligned on interleaves
Interleave, duration : 24 ms (0.72 video frame)
Interleave, preload duration : 484 ms
Добавлены заключительные серии!


Последний раз редактировалось: dusy78 (2015-07-05 06:35), всего редактировалось 17 раз(а)
[Профиль] [ЛС]

dusy78 ®

Стаж: 3 года 10 месяцев

Сообщений: 1005

Откуда: Россия

Пост 01-Дек-2014 14:06 (спустя 1 день 8 часов)

[Цитировать]

Добавлена 2 серия!
[Профиль] [ЛС]

Tainted-love

Стаж: 2 года 11 месяцев

Сообщений: 1180

Пост 01-Дек-2014 21:03 (спустя 6 часов)

[Цитировать]

Оо... еще одна серия спасибо огромное.
[Профиль] [ЛС]

Ланочка10_83

Стаж: 3 года 1 месяц

Сообщений: 131

Пост 03-Дек-2014 03:37 (спустя 1 день 6 часов)

[Цитировать]

ухты спасибо! :)
[Профиль] [ЛС]

dusy78 ®

Стаж: 3 года 10 месяцев

Сообщений: 1005

Откуда: Россия

Пост 06-Дек-2014 06:40 (спустя 3 дня)

[Цитировать]

Добавлена 3 серия!
[Профиль] [ЛС]

ailara

Стаж: 2 года 1 месяц

Сообщений: 3

Пост 08-Дек-2014 05:52 (спустя 1 день 23 часа)

[Цитировать]

Помагите у мен не получается посмотрел я скачала но не открывайет вайыл
[Профиль] [ЛС]

dusy78 ®

Стаж: 3 года 10 месяцев

Сообщений: 1005

Откуда: Россия

Пост 12-Дек-2014 19:45 (спустя 4 дня)

[Цитировать]

Добавлена 4 серия!
[Профиль] [ЛС]

dusy78 ®

Стаж: 3 года 10 месяцев

Сообщений: 1005

Откуда: Россия

Пост 14-Дек-2014 14:42 (спустя 1 день 18 часов)

[Цитировать]

Добавлена 5 серия!
[Профиль] [ЛС]

Tainted-love

Стаж: 2 года 11 месяцев

Сообщений: 1180

Пост 14-Дек-2014 17:15 (спустя 2 часа 32 минуты)

[Цитировать]

Две серии подряд... феерично!!!
[Профиль] [ЛС]

anjell

Стаж: 3 года 10 месяцев

Сообщений: 44

Пост 15-Дек-2014 22:12 (спустя 1 день 4 часа)

[Цитировать]

спасибо классноя дорама
[Профиль] [ЛС]

dusy78 ®

Стаж: 3 года 10 месяцев

Сообщений: 1005

Откуда: Россия

Пост 21-Дек-2014 13:50 (спустя 5 дней)

[Цитировать]

Добавлена 6 серия!
[Профиль] [ЛС]

j_777

Стаж: 3 года 9 месяцев

Сообщений: 302

Пост 21-Дек-2014 15:09 (спустя 1 час 18 минут)

[Цитировать]

Спасибо!
[Профиль] [ЛС]

Tainted-love

Стаж: 2 года 11 месяцев

Сообщений: 1180

Пост 21-Дек-2014 20:41 (спустя 5 часов)

[Цитировать]

Спасибо огромное за новую серию. Кто знает сколько всего должно быть серий в этой дораме шестнадцать или двадцать?
[Профиль] [ЛС]

dusy78 ®

Стаж: 3 года 10 месяцев

Сообщений: 1005

Откуда: Россия

Пост 22-Дек-2014 06:09 (спустя 9 часов)

[Цитировать]

Tainted-love, если верить корейским сайтам, то 20
[Профиль] [ЛС]

Tainted-love

Стаж: 2 года 11 месяцев

Сообщений: 1180

Пост 22-Дек-2014 07:52 (спустя 1 час 43 минуты)

[Цитировать]

Спасибо за информацию.
[Профиль] [ЛС]
Показать сообщения:    
Ответить на тему

Текущее время: Сегодня 16:36

Часовой пояс: GMT



Вы не можете начинать темы
Вы не можете отвечать на сообщения
Вы не можете редактировать свои сообщения
Вы не можете удалять свои сообщения
Вы не можете голосовать в опросах
Вы не можете прикреплять файлы к сообщениям
Вы не можете скачивать файлы