Жалобы на работу трекера ! прошу сюда :)

Правильная любовь / Sensible Love / Valid Love [20/20] (Han Ji Seung) [2014 г., романтика, HDTVRip] [720p] DVO GREEN TEA

Страницы :  1, 2  След.

Ответить на тему
 
Автор Сообщение

Valerius Kafa ®

Стаж: 3 года 2 месяца

Сообщений: 79

Пост 05-Дек-2014 10:32

[Цитировать]

Правильная любовь / Sensible Love / Valid Love
Год выпуска: 2014
Страна: Южная Корея
Жанр: романтика
Продолжительность: 20 серий ~ 60 минут-Озвучивания:
1-3 серии - Валерий Феодосов,
с 4 серии - Елена Егорова и Владимир Полупанов-Режиссер: Han Ji Seung
В ролях: Ом Тэ Ун в роли Чжан Хи Тэ
Ли Си Юн в роли Ким Иль Ри
Ли Су Хёк в роли Ким Чжуна
Чхве Ёль Чжин в роли Чжан Хи Су (сестра Хи Тэ)-Описание: Хи Тэ (Ом Тэ Ун) встретил свою будущую жену, Иль Ри (Ли Си Ён), когда работал учителем биологии в средней школе для девочек. Иль Ри была его ученицей.Сейчас Хи Тэ работает в сфере рыболовства, и у него самый обыкновенный брак. Но однажды он узнает, что у его жены есть связь на стороне с парнем, который работает плотником (Ли Су Хёк). Его обуревает гнев, но, несмотря ни на что, он решает сохранить семью и остаться с женой.-Релиз группы GREEN TEA
Перевод: фсг МАНИЯ
Оформление постера и работа со звуком: Ольга Гринтиева-Качество: HDTVRip
Формат: AVI
Видео кодек: H.264
Аудио кодек: MP3
Видео: 1280х720, ~ 2518 Kbps, 29.970 fps
Аудио: 192 Kbps, 48 kHz, 2 ch
!!! Альтернативная раздача 640х360
ОСТ к дораме Правильная любовь

MediaInfo

Format : AVI
Format/Info : Audio Video Interleave
File size : 1.11 GiB
Duration : 58mn 27s
Overall bit rate : 2 722 Kbps
Writing library : VirtualDub build 35486/release
Video #0
ID : 0
Format : AVC
Format/Info : Advanced Video Codec
Format profile : High@L3.1
Format settings, CABAC : No
Format settings, ReFrames : 1 frame
Codec ID : H264
Duration : 58mn 27s
Bit rate : 2 518 Kbps
Nominal bit rate : 2 916 Kbps
Width : 1 280 pixels
Height : 720 pixels
Display aspect ratio : 16:9
Frame rate : 29.970 fps
Color space : YUV
Chroma subsampling : 4:2:0
Bit depth : 8 bits
Scan type : Progressive
Bits/(Pixel*Frame) : 0.091
Stream size : 1.03 GiB (93%)
Writing library : x264 core 116 r2057kMod 0ba8a9c
Encoding settings : cabac=0 / ref=1 / deblock=1:0:0 / analyse=0x3:0x13 / me=umh / subme=7 / psy=1 / fade_compensate=0.00 / psy_rd=1.00:0.00 / mixed_ref=0 / me_range=16 / chroma_me=1 / trellis=1 / 8x8dct=1 / cqm=0 / deadzone=21,11 / fast_pskip=1 / chroma_qp_offset=-2 / threads=4 / sliced_threads=1 / slices=4 / nr=0 / decimate=1 / interlaced=0 / bluray_compat=0 / constrained_intra=0 / bframes=0 / weightp=2 / keyint=250 / keyint_min=25 / scenecut=40 / intra_refresh=0 / rc=abr / mbtree=0 / bitrate=2916 / ratetol=1.0 / qcomp=0.60 / qpmin=10 / qpmax=51 / qpstep=4 / ip_ratio=1.40 / aq=1:1.00
Audio #1
ID : 1
Format : MPEG Audio
Format version : Version 1
Format profile : Layer 3
Codec ID : 55
Codec ID/Hint : MP3
Duration : 58mn 27s
Bit rate mode : Constant
Bit rate : 192 Kbps
Channel(s) : 2 channels
Sampling rate : 48.0 KHz
Compression mode : Lossy
Stream size : 80.3 MiB (7%)
Alignment : Split accross interleaves
Interleave, duration : 33 ms (1.00 video frame)
Interleave, preload duration : 500 ms

Скриншоты


_________________
Подпись отключена за нарушение правил форума


Последний раз редактировалось: Valerius Kafa (2014-12-11 19:35), всего редактировалось 2 раз(а)
[Профиль] [ЛС]

dusy78

Стаж: 3 года 10 месяцев

Сообщений: 1005

Откуда: Россия

Пост 06-Дек-2014 05:39 (спустя 19 часов)

[Цитировать]

Маленькая раздача! http://tracker.green-tea.tv/viewtopic.php?t=973
[Профиль] [ЛС]

nnestor

Стаж: 2 года 11 месяцев

Сообщений: 116

Пост 06-Дек-2014 18:42 (спустя 13 часов)

[Цитировать]

спасибо за новинку
[Профиль] [ЛС]

Valerius Kafa ®

Стаж: 3 года 2 месяца

Сообщений: 79

Пост 07-Дек-2014 09:39 (спустя 14 часов)

[Цитировать]

Добавлена 2 серия!

_________________
Подпись отключена за нарушение правил форума
[Профиль] [ЛС]

Tainted-love

Стаж: 2 года 11 месяцев

Сообщений: 1180

Пост 07-Дек-2014 15:41 (спустя 6 часов)

[Цитировать]

Спасибо огромное... и удачи.
[Профиль] [ЛС]

rodqer

Стаж: 3 года 10 месяцев

Сообщений: 417

Откуда: кемерово

Пост 09-Дек-2014 13:02 (спустя 1 день 21 час)

[Цитировать]

спасибо огромное
[Профиль] [ЛС]

Valerius Kafa ®

Стаж: 3 года 2 месяца

Сообщений: 79

Пост 11-Дек-2014 19:36 (спустя 2 дня 6 часов)

[Цитировать]

Добавлена 3 серия!

_________________
Подпись отключена за нарушение правил форума
[Профиль] [ЛС]

Milla

Стаж: 3 года 10 месяцев

Сообщений: 68

Пост 15-Дек-2014 20:01 (спустя 4 дня)

[Цитировать]

Добавлена 4 серия!
[Профиль] [ЛС]

Milla

Стаж: 3 года 10 месяцев

Сообщений: 68

Пост 21-Дек-2014 07:34 (спустя 5 дней)

[Цитировать]

Добавлена 5 серия!
[Профиль] [ЛС]

Milla

Стаж: 3 года 10 месяцев

Сообщений: 68

Пост 23-Дек-2014 14:45 (спустя 2 дня 7 часов)

[Цитировать]

Добавлена 6 серия!
[Профиль] [ЛС]

Milla

Стаж: 3 года 10 месяцев

Сообщений: 68

Пост 30-Дек-2014 18:32 (спустя 7 дней)

[Цитировать]

Добавлена 7 серия!
[Профиль] [ЛС]

diarus

Стаж: 2 года 9 месяцев

Сообщений: 3

Пост 11-Янв-2015 09:04 (спустя 11 дней)

[Цитировать]

Ребят выложите 8 и 9 серию, у вас уже онлайн можно посмотреть, правда качество на "playreplay.net" не выставляется - жалко очень!
А хочется "нормальную картинку" увидеть!!)))
Спасибо за Ваш титанический труд!!
[Профиль] [ЛС]

Milla

Стаж: 3 года 10 месяцев

Сообщений: 68

Пост 13-Янв-2015 17:24 (спустя 2 дня 8 часов)

[Цитировать]

Добавлена 8 серия!
[Профиль] [ЛС]

Milla

Стаж: 3 года 10 месяцев

Сообщений: 68

Пост 06-Фев-2015 07:14 (спустя 23 дня)

[Цитировать]

Добавлены 9-10 серии!
[Профиль] [ЛС]

Меаридолика

Стаж: 3 года 10 месяцев

Сообщений: 18

Пост 07-Фев-2015 17:42 (спустя 1 день 10 часов)

[Цитировать]

Проблема с 4 серией. Скачав до конца серию видео открывается но без видео сопровождения, лишь звук. Скачанный файл без эмблемой группы, выглядит как не до конца скачанный файл. Я уже наверно раз пятый пытаюсь скачать одну и ту же серию. Ни разу не сталкивалась с подобным.
[Профиль] [ЛС]
Показать сообщения:    
Ответить на тему

Текущее время: Сегодня 18:29

Часовой пояс: GMT



Вы не можете начинать темы
Вы не можете отвечать на сообщения
Вы не можете редактировать свои сообщения
Вы не можете удалять свои сообщения
Вы не можете голосовать в опросах
Вы не можете прикреплять файлы к сообщениям
Вы не можете скачивать файлы