Жалобы на работу трекера ! прошу сюда :)

Гении медицины / Медицинская команда / Medical Top Team [20/20] [Kim Do-hoon / Yoon Kyung-ah] [2013 г., медицинская драма , романтика] [720р] DVO GREEN TEA

Страницы :  1, 2  След.

Ответить на тему
 
Автор Сообщение

Nas ®

Стаж: 3 года 10 месяцев

Сообщений: 372

Пост 05-Дек-2014 13:29

[Цитировать]

Гении медицины
Медицинская команда / Medical Top Team
- Выпуск: 2013г
Время показа:
Страна: Южная Корея
Жанр: медицинская драма , романтика
Продолжительность: 20/20
-
Перевод: Двухголосый закадровый Анастасия Романова и Владимир Полупанов
-
Режиссер: Kim Do-hoon
Сценарий: Yoon Kyung-ah
В ролях:
Kwon Sang-Woo - Park Tae-Shin (Королева амбиций 2013)
Jung Ryeo-Won - Seo Joo-Young (Король дорамы 2012)
Ju Ji-Hoon - Han Seung-Jae
Minho - Kim Sung-Woo (группа SHINee)
Oh Yeon-Seo - Choi A-Jin
Alex - Bae Sang-Kyu (Паста 2010)
Kim Young-Ae - Shin Hye-Soo
Ahn Nae-Sang - Jang Yong-Seob
Lee Hee-Jin - Yoo Hye-Ran (Монстар)
Kim Seong-Kyeom
Jo Woo-Ri - Yeo Min-Ji
Park Won-Sang - Jo Joon-Hyeok
Описание:
Медицинская драма расскажет историю о команде докторов, каждый из которых является лучшим в своей области, и покажет зрителям реалии области медицины и ведущуюся в ней борьбу за власть. Главные роли исполняют Квон Сан У, Чон Рё Вон, Чу Чжи Хун, О Ён Со, Минхо из SHINee и многие другие.
Пак Тэ Шин (Квон Сан У) - гениальный хирург, которого часто неправильно понимают из-за опрометчивых замечаний, но, тем не менее, у него доброе сердце.
Со Чжу Ён (Чон Рё Вон) - харизматичный и амбициозный кардиохирург, сильная и жесткая, но с добрым сердцем. Она перфекционист и трудоголик.Хан Сын Чжэ (Чу Чжи Хун) - супер терапевт, которые стремится открыть собственную больницу и стать главврачом.
Чхве А Чжин (О Ён Со) - самый молодой хирург кардиологического отделения, из-за того, что работает всего 2 года, у нее мало опыта.
Ким Сон У (Чхве Мин Хо) - интерн в отделении кардиохирургии, а также близкий друг Чхве А Чжин.
-
Доп. информация:
Перевод: фсг "BIG BOSS"
Релиз группы GREEN TEA
Оформление постера: Дина Фаткуллина
Работа со звуком: Ольга Гринтиева
-Формат: AVI
Видео кодек: H264
Аудио кодек: MP3
Видео: 1280/720 pixels, 29.970 fps, 16:9, 2 542 Kbps
Аудио: 192 Kbps, 2 channels, 48.0 KHz
!!! Альтернативная раздача 640х360
ОСТ к дораме Гении медицины

MediaInfo

Format : AVI
Format/Info : Audio Video Interleave
File size : 1.44 GiB
Duration : 1h 3mn
Overall bit rate : 3 235 Kbps
Writing application : VirtualDubMod 1.5.10.2 (build 2540/release)
Writing library : VirtualDubMod build 2540/release
Video
ID : 0
Format : AVC
Format/Info : Advanced Video Codec
Format profile : High@L3.1
Format settings, CABAC : No
Format settings, ReFrames : 1 frame
Codec ID : H264
Duration : 1h 3mn
Bit rate : 2 916 Kbps
Width : 1 280 pixels
Height : 720 pixels
Display aspect ratio : 16:9
Frame rate : 29.970 fps
Color space : YUV
Chroma subsampling : 4:2:0
Bit depth : 8 bits
Scan type : Progressive
Bits/(Pixel*Frame) : 0.106
Stream size : 1.35 GiB (94%)
Writing library : x264 core 116 r2057kMod 0ba8a9c
Encoding settings : cabac=0 / ref=1 / deblock=1:0:0 / analyse=0x3:0x13 / me=umh / subme=7 / psy=1 / fade_compensate=0.00 / psy_rd=1.00:0.00 / mixed_ref=0 / me_range=16 / chroma_me=1 / trellis=1 / 8x8dct=1 / cqm=0 / deadzone=21,11 / fast_pskip=1 / chroma_qp_offset=-2 / threads=4 / sliced_threads=1 / slices=4 / nr=0 / decimate=1 / interlaced=0 / bluray_compat=0 / constrained_intra=0 / bframes=0 / weightp=2 / keyint=250 / keyint_min=25 / scenecut=40 / intra_refresh=0 / rc=abr / mbtree=0 / bitrate=2916 / ratetol=1.0 / qcomp=0.60 / qpmin=10 / qpmax=51 / qpstep=4 / ip_ratio=1.40 / aq=1:1.00
Audio
ID : 1
Format : MPEG Audio
Format version : Version 1
Format profile : Layer 3
Codec ID : 55
Codec ID/Hint : MP3
Duration : 1h 3mn
Bit rate mode : Constant
Bit rate : 192 Kbps
Channel(s) : 2 channels
Sampling rate : 48.0 KHz
Compression mode : Lossy
Stream size : 87.6 MiB (6%)
Alignment : Aligned on interleaves
Interleave, duration : 33 ms (1.00 video frame)
Interleave, preload duration : 504 ms

Скриншоты

Добавлены 15-20 серии!!


Последний раз редактировалось: Nas (2015-04-27 09:58), всего редактировалось 3 раз(а)
[Профиль] [ЛС]

LastRebel

Стаж: 3 года 2 месяца

Сообщений: 1

Пост 05-Дек-2014 14:38 (спустя 1 час 9 минут)

[Цитировать]

Спасибо!!! только вот есть вопрос: а 400 или 360 будет?
[Профиль] [ЛС]

dusy78

Стаж: 3 года 10 месяцев

Сообщений: 1005

Откуда: Россия

Пост 05-Дек-2014 14:50 (спустя 11 минут)

[Цитировать]

LastRebel, будет )))
[Профиль] [ЛС]

dusy78

Стаж: 3 года 10 месяцев

Сообщений: 1005

Откуда: Россия

Пост 06-Дек-2014 05:50 (спустя 14 часов)

[Цитировать]

Маленькая раздача! http://tracker.green-tea.tv/viewtopic.php?t=974
[Профиль] [ЛС]

pandora2177

Стаж: 3 года 10 месяцев

Сообщений: 368

Пост 22-Дек-2014 17:06 (спустя 16 дней)

[Цитировать]

Добавлена 2 серия.
[Профиль] [ЛС]

Nas ®

Стаж: 3 года 10 месяцев

Сообщений: 372

Пост 14-Фев-2015 09:11 (спустя 1 месяц 22 дня)

[Цитировать]

Добавлена 3 серия.
[Профиль] [ЛС]

tatyana73

Стаж: 3 года 1 месяц

Сообщений: 127

Пост 14-Фев-2015 21:37 (спустя 12 часов)

[Цитировать]

Спасибо !!!
[Профиль] [ЛС]

Nas ®

Стаж: 3 года 10 месяцев

Сообщений: 372

Пост 21-Фев-2015 15:57 (спустя 6 дней)

[Цитировать]

Добавлена 4 серия.
[Профиль] [ЛС]

adventyrer

Стаж: 1 год 9 месяцев

Сообщений: 1

Пост 22-Фев-2015 15:27 (спустя 23 часа)

[Цитировать]

На 75 % повис - раздачи нет
[Профиль] [ЛС]

Dragontell

Стаж: 1 год 10 месяцев

Сообщений: 1

Пост 08-Мар-2015 04:00 (спустя 13 дней)

[Цитировать]

А примерно через сколько одну серию выпускаете или у вас пока все заняты?)
[Профиль] [ЛС]

Nas ®

Стаж: 3 года 10 месяцев

Сообщений: 372

Пост 27-Апр-2015 10:01 (спустя 1 месяц 19 дней)

[Цитировать]

Добавлена 5 серия.
[Профиль] [ЛС]

dusy78

Стаж: 3 года 10 месяцев

Сообщений: 1005

Откуда: Россия

Пост 26-Сен-2015 14:53 (спустя 4 месяца 29 дней)

[Цитировать]

Добавлены 6-11 серии!!
[Профиль] [ЛС]

dusy78

Стаж: 3 года 10 месяцев

Сообщений: 1005

Откуда: Россия

Пост 06-Дек-2015 14:18 (спустя 2 месяца 9 дней)

[Цитировать]

Добавлены 12-14 серии!!
[Профиль] [ЛС]

Zerio

Стаж: 8 месяцев 23 дня

Сообщений: 8

Пост 17-Мар-2016 15:08 (спустя 3 месяца 11 дней)

[Цитировать]

качать невозможно. нет пиров
[Профиль] [ЛС]

dusy78

Стаж: 3 года 10 месяцев

Сообщений: 1005

Откуда: Россия

Пост 28-Апр-2016 16:18 (спустя 1 месяц 11 дней)

[Цитировать]

Добавлены 15-20 серии!!
[Профиль] [ЛС]
Показать сообщения:    
Ответить на тему

Текущее время: Сегодня 02:06

Часовой пояс: GMT



Вы не можете начинать темы
Вы не можете отвечать на сообщения
Вы не можете редактировать свои сообщения
Вы не можете удалять свои сообщения
Вы не можете голосовать в опросах
Вы не можете прикреплять файлы к сообщениям
Вы не можете скачивать файлы