Жалобы на работу трекера ! прошу сюда :)

Правильная любовь / Sensible Love / Valid Love [20/20] (Han Ji Seung) [2014 г., романтика, HDTVRip] [360p] DVO GREEN TEA

Страницы :  1, 2  След.

Ответить на тему
 
Автор Сообщение

dusy78 ®

Стаж: 3 года 10 месяцев

Сообщений: 1005

Откуда: Россия

Пост 06-Дек-2014 05:26

[Цитировать]

Правильная любовь
Sensible Love / Valid Love
Год выпуска: 2014
Страна: Южная Корея
Жанр: романтика
Продолжительность: 20/20
Озвучивание:
1-3 серии Валерий Феодосов

СЕМПЛ: https://yadi.sk/i/syhHc0f6dBeZQ
с 4 серии Елена Егорова и Владимир Полупанов
СЕМПЛ: https://yadi.sk/i/4iTnCDqFdQx5D
Режиссер: Han Ji Seung
В ролях:
Ом Тэ Ун в роли Чжан Хи Тэ
Ли Си Юн в роли Ким Иль Ри
Ли Су Хёк в роли Ким Чжуна
Чхве Ёль Чжин в роли Чжан Хи Су (сестра Хи Тэ)
Описание: Хи Тэ (Ом Тэ Ун) встретил свою будущую жену, Иль Ри (Ли Си Ён), когда работал учителем биологии в средней школе для девочек. Иль Ри была его ученицей.Сейчас Хи Тэ работает в сфере рыболовства, и у него самый обыкновенный брак. Но однажды он узнает, что у его жены есть связь на стороне с парнем, который работает плотником (Ли Су Хёк). Его обуревает гнев, но, несмотря ни на что, он решает сохранить семью и остаться с женой.
Доп. информация:
Релиз группы: GREEN TEA
Перевод: фсг МАНИЯ
Оформление постера и работа со звуком: Ольга Гринтиева
Качество: HDTVRip
Формат: AVI
Видео кодек: XviD
Аудио кодек: MP3
Видео: 640х360, ~1400 Kbps, 29.970 fps
Аудио: 192 Kbps, 48 kHz, 2 ch
!!! Альтернативная раздача 1280х720
ОСТ к дораме Правильная любовь

Скриншоты

MediaInfo

Format : AVI
Format/Info : Audio Video Interleave
File size : 672 MiB
Duration : 58mn 27s
Overall bit rate mode : Variable
Overall bit rate : 1 608 Kbps
Writing application : VirtualDubMod 1.5.10.3 | www.virtualdub-fr.org || (build 2550/release)
Writing library : VirtualDubMod build 2550/release
Video
ID : 0
Format : MPEG-4 Visual
Format profile : Advanced Simple@L5
Format settings, BVOP : 2
Format settings, QPel : No
Format settings, GMC : No warppoints
Format settings, Matrix : Default (MPEG)
Codec ID : XVID
Codec ID/Hint : XviD
Duration : 58mn 27s
Bit rate : 1 402 Kbps
Width : 640 pixels
Height : 360 pixels
Display aspect ratio : 16:9
Frame rate : 29.970 fps
Color space : YUV
Chroma subsampling : 4:2:0
Bit depth : 8 bits
Scan type : Progressive
Compression mode : Lossy
Bits/(Pixel*Frame) : 0.203
Stream size : 586 MiB (87%)
Writing library : XviD 1.2.1 (UTC 2008-12-04)
Audio
ID : 1
Format : MPEG Audio
Format version : Version 1
Format profile : Layer 3
Codec ID : 55
Codec ID/Hint : MP3
Duration : 58mn 27s
Bit rate mode : Variable
Bit rate : 192 Kbps
Channel(s) : 2 channels
Sampling rate : 48.0 KHz
Compression mode : Lossy
Stream size : 80.3 MiB (12%)
Alignment : Aligned on interleaves
Interleave, duration : 24 ms (0.72 video frame)
Interleave, preload duration : 484 ms
Добавлена 20 серия!


Последний раз редактировалось: dusy78 (2015-05-20 10:01), всего редактировалось 16 раз(а)
[Профиль] [ЛС]

sungoro

Стаж: 3 года 1 месяц

Сообщений: 8

Пост 06-Дек-2014 17:55 (спустя 12 часов)

[Цитировать]

Спасибо,
а главного героя играет не брат актрисы,которая в "романе ведьмы" играла? кажется её зовут Ом Чжон Хва (Uhm Jung Hwa)?что-то лицо похоже..
[Профиль] [ЛС]

dusy78 ®

Стаж: 3 года 10 месяцев

Сообщений: 1005

Откуда: Россия

Пост 08-Дек-2014 13:35 (спустя 1 день 19 часов)

[Цитировать]

Добавлена 2 серия!
sungoro, прогуглила ваш пост и точно! Они брат и сестра! Я и не знала, спасибо за подсказку)))
[Профиль] [ЛС]

anjell

Стаж: 3 года 9 месяцев

Сообщений: 44

Пост 15-Дек-2014 21:37 (спустя 7 дней)

[Цитировать]

а когда примерно ждать 3 и 4 серию???
[Профиль] [ЛС]

dusy78 ®

Стаж: 3 года 10 месяцев

Сообщений: 1005

Откуда: Россия

Пост 16-Дек-2014 14:32 (спустя 16 часов)

[Цитировать]

Добавлены 3-4 серии!
[Профиль] [ЛС]

dusy78 ®

Стаж: 3 года 10 месяцев

Сообщений: 1005

Откуда: Россия

Пост 22-Дек-2014 06:32 (спустя 5 дней)

[Цитировать]

Добавлена 5 серия!
[Профиль] [ЛС]

dusy78 ®

Стаж: 3 года 10 месяцев

Сообщений: 1005

Откуда: Россия

Пост 23-Дек-2014 19:32 (спустя 1 день 13 часов)

[Цитировать]

Добавлена 6 серия!
[Профиль] [ЛС]

dusy78 ®

Стаж: 3 года 10 месяцев

Сообщений: 1005

Откуда: Россия

Пост 01-Янв-2015 09:16 (спустя 8 дней)

[Цитировать]

Добавлена 7 серия!
[Профиль] [ЛС]

j_777

Стаж: 3 года 9 месяцев

Сообщений: 302

Пост 01-Янв-2015 09:29 (спустя 13 минут)

[Цитировать]

Спасибки!
[Профиль] [ЛС]

lisa83

Стаж: 2 года 11 месяцев

Сообщений: 20

Пост 11-Янв-2015 17:17 (спустя 10 дней)

[Цитировать]

обновите пожалуйста торент
[Профиль] [ЛС]

dusy78 ®

Стаж: 3 года 10 месяцев

Сообщений: 1005

Откуда: Россия

Пост 06-Фев-2015 17:01 (спустя 25 дней)

[Цитировать]

Добавлены 8-9 серии!
[Профиль] [ЛС]

dusy78 ®

Стаж: 3 года 10 месяцев

Сообщений: 1005

Откуда: Россия

Пост 09-Фев-2015 14:25 (спустя 2 дня 21 час)

[Цитировать]

Добавлены 10-11 серии!
[Профиль] [ЛС]

dusy78 ®

Стаж: 3 года 10 месяцев

Сообщений: 1005

Откуда: Россия

Пост 12-Фев-2015 15:04 (спустя 3 дня)

[Цитировать]

Добавлена 12 серия!
[Профиль] [ЛС]

Ланочка10_83

Стаж: 3 года 1 месяц

Сообщений: 131

Пост 13-Фев-2015 03:16 (спустя 12 часов)

[Цитировать]

Пасибочки! )
[Профиль] [ЛС]

DragsterStyle

Стаж: 1 год 9 месяцев

Сообщений: 1

Пост 25-Фев-2015 12:57 (спустя 12 дней)

[Цитировать]

Хде 13 серия
ради неё зарегистрировался здесь!
А ее здесь нету)))
Россия чё сказать
как про забор) а там дрова лежат!
[Профиль] [ЛС]
Показать сообщения:    
Ответить на тему

Текущее время: Сегодня 09:34

Часовой пояс: GMT



Вы не можете начинать темы
Вы не можете отвечать на сообщения
Вы не можете редактировать свои сообщения
Вы не можете удалять свои сообщения
Вы не можете голосовать в опросах
Вы не можете прикреплять файлы к сообщениям
Вы не можете скачивать файлы