Жалобы на работу трекера ! прошу сюда :)

Гении медицины / Медицинская команда / Medical Top Team [20/20] [Kim Do-hoon / Yoon Kyung-ah] [2013 г., медицинская драма , романтика] [360] DVO GREEN TEA

Страницы :  1, 2, 3  След.

Ответить на тему
 
Автор Сообщение

dusy78 ®

Стаж: 3 года 10 месяцев

Сообщений: 1005

Откуда: Россия

Пост 06-Дек-2014 05:48

[Цитировать]

Гении медицины
Медицинская команда / Medical Top Team
Выпуск: 2013
Время показа:
Страна: Южная Корея
Жанр: медицинская драма , романтика
Продолжительность: 20/20
Озвучивание:Анастасия Романова и Владимир Полупанов
СЕМПЛ: https://yadi.sk/i/LOxQkDEWdfgcR
Режиссер: Kim Do-hoon
Сценарий: Yoon Kyung-ah
В ролях:
Kwon Sang-Woo - Park Tae-Shin (Королева амбиций 2013)
Jung Ryeo-Won - Seo Joo-Young (Король дорамы 2012)
Ju Ji-Hoon - Han Seung-Jae
Minho - Kim Sung-Woo (группа SHINee)
Oh Yeon-Seo - Choi A-Jin
Alex - Bae Sang-Kyu (Паста 2010)
Kim Young-Ae - Shin Hye-Soo
Ahn Nae-Sang - Jang Yong-Seob
Lee Hee-Jin - Yoo Hye-Ran (Монстар)
Kim Seong-Kyeom
Jo Woo-Ri - Yeo Min-Ji
Park Won-Sang - Jo Joon-Hyeok
Описание: Медицинская драма расскажет историю о команде докторов, каждый из которых является лучшим в своей области, и покажет зрителям реалии области медицины и ведущуюся в ней борьбу за власть. Главные роли исполняют Квон Сан У, Чон Рё Вон, Чу Чжи Хун, О Ён Со, Минхо из SHINee и многие другие.
Пак Тэ Шин (Квон Сан У) - гениальный хирург, которого часто неправильно понимают из-за опрометчивых замечаний, но, тем не менее, у него доброе сердце.
Со Чжу Ён (Чон Рё Вон) - харизматичный и амбициозный кардиохирург, сильная и жесткая, но с добрым сердцем. Она перфекционист и трудоголик.
Хан Сын Чжэ (Чу Чжи Хун) - супер терапевт, которые стремится открыть собственную больницу и стать главврачом.
Чхве А Чжин (О Ён Со) - самый молодой хирург кардиологического отделения, из-за того, что работает всего 2 года, у нее мало опыта.
Ким Сон У (Чхве Мин Хо) - интерн в отделении кардиохирургии, а также близкий друг Чхве А Чжин.
Доп. информация:
Перевод: фсг "BIG BOSS"
Релиз группы GREEN TEA
Оформление постера: Дина Фаткуллина
Работа со звуком: Ольга Гринтиева

Формат: AVI
Видео кодек: XviD
Аудио кодек: MP3
Видео: 640х360, ~1400 Kbps, 29.970 fps
Аудио: 192 Kbps, 48 kHz, 2 ch
!!! Альтернативная раздача 1280х720
ОСТ к дораме Гении медицины

Скриншоты

MediaInfo

Format : AVI
Format/Info : Audio Video Interleave
File size : 733 MiB
Duration : 1h 3mn
Overall bit rate mode : Variable
Overall bit rate : 1 606 Kbps
Writing application : VirtualDubMod 1.5.10.3 | www.virtualdub-fr.org || (build 2550/release)
Writing library : VirtualDubMod build 2550/release
Video
ID : 0
Format : MPEG-4 Visual
Format profile : Advanced Simple@L5
Format settings, BVOP : 2
Format settings, QPel : No
Format settings, GMC : No warppoints
Format settings, Matrix : Default (MPEG)
Codec ID : XVID
Codec ID/Hint : XviD
Duration : 1h 3mn
Bit rate : 1 400 Kbps
Width : 640 pixels
Height : 360 pixels
Display aspect ratio : 16:9
Frame rate : 29.970 fps
Color space : YUV
Chroma subsampling : 4:2:0
Bit depth : 8 bits
Scan type : Progressive
Compression mode : Lossy
Bits/(Pixel*Frame) : 0.203
Stream size : 639 MiB (87%)
Writing library : XviD 1.2.1 (UTC 2008-12-04)
Audio
ID : 1
Format : MPEG Audio
Format version : Version 1
Format profile : Layer 3
Codec ID : 55
Codec ID/Hint : MP3
Duration : 1h 3mn
Bit rate mode : Variable
Bit rate : 192 Kbps
Channel(s) : 2 channels
Sampling rate : 48.0 KHz
Compression mode : Lossy
Stream size : 87.6 MiB (12%)
Alignment : Aligned on interleaves
Interleave, duration : 24 ms (0.72 video frame)
Interleave, preload duration : 484 ms
Добавлены 15-20 серии!!


Последний раз редактировалось: dusy78 (2016-04-28 16:15), всего редактировалось 8 раз(а)
[Профиль] [ЛС]

Tainted-love

Стаж: 2 года 11 месяцев

Сообщений: 1180

Пост 06-Дек-2014 22:10 (спустя 16 часов)

[Цитировать]

Это очень хороший сюрприз... спасибо!
[Профиль] [ЛС]

dusy78 ®

Стаж: 3 года 10 месяцев

Сообщений: 1005

Откуда: Россия

Пост 28-Дек-2014 12:15 (спустя 21 день)

[Цитировать]

Добавлена 2 серия!
[Профиль] [ЛС]

Tainted-love

Стаж: 2 года 11 месяцев

Сообщений: 1180

Пост 02-Янв-2015 17:14 (спустя 5 дней)

[Цитировать]

С новым годом поздравляю счастья , радости желаю! Пусть в Вашем доме будет смех и дед Мороз с мешком конфет!
[Профиль] [ЛС]

Tainted-love

Стаж: 2 года 11 месяцев

Сообщений: 1180

Пост 02-Янв-2015 17:26 (спустя 12 минут)

[Цитировать]

Поздравляю с Новым годом! Желаю чтобы он был для вас счастливым и радостным!
[Профиль] [ЛС]

xxxxDreamxxxx

Стаж: 1 год 10 месяцев

Сообщений: 247

Откуда: Севастополь

Пост 16-Янв-2015 22:05 (спустя 14 дней)

[Цитировать]

А дальше переводы будут или это будет зависеть от материальных средств?

_________________
[Профиль] [ЛС]

lovetarja

Стаж: 2 года 11 месяцев

Сообщений: 1

Пост 18-Янв-2015 10:20 (спустя 1 день 12 часов)

[Цитировать]

А дальше переводы будут или это будет зависеть от материальных средств?
тоже интересует...
[Профиль] [ЛС]

jondok

Стаж: 2 года 1 месяц

Сообщений: 706

Откуда: Россия

Пост 18-Янв-2015 11:16 (спустя 55 минут)

[Цитировать]

А дальше переводы будут или это будет зависеть от материальных средств?
вы правильно поняли, сериал озвучивается на платной основе, так что всё зависит от зрителей, на данный момент идёт сбор на четвёртую серию.
[Профиль] [ЛС]

simka

Стаж: 3 года 10 месяцев

Сообщений: 94

Пост 25-Янв-2015 16:58 (спустя 7 дней)

[Цитировать]

что то мне сюжет не пошел(((
5 из 10 at

_________________

.


Слава-Україна! Героям-Слава!
[Профиль] [ЛС]

dusy78 ®

Стаж: 3 года 10 месяцев

Сообщений: 1005

Откуда: Россия

Пост 15-Фев-2015 13:29 (спустя 20 дней)

[Цитировать]

Добавлена 3 серия!
[Профиль] [ЛС]

dusy78 ®

Стаж: 3 года 10 месяцев

Сообщений: 1005

Откуда: Россия

Пост 21-Фев-2015 14:21 (спустя 6 дней)

[Цитировать]

Добавлена 4 серия!
[Профиль] [ЛС]

Tainted-love

Стаж: 2 года 11 месяцев

Сообщений: 1180

Пост 25-Апр-2015 07:47 (спустя 2 месяца 3 дня)

[Цитировать]

Давненько ничего не было. Эта работа платная?
[Профиль] [ЛС]

jondok

Стаж: 2 года 1 месяц

Сообщений: 706

Откуда: Россия

Пост 25-Апр-2015 21:33 (спустя 13 часов)

[Цитировать]

Давненько ничего не было. Эта работа платная?
Платная, идёт сбор на восьмую серию, остальные серии в работе.
[Профиль] [ЛС]

dusy78 ®

Стаж: 3 года 10 месяцев

Сообщений: 1005

Откуда: Россия

Пост 27-Апр-2015 15:53 (спустя 1 день 18 часов)

[Цитировать]

Добавлена 5 серия!
[Профиль] [ЛС]

Tainted-love

Стаж: 2 года 11 месяцев

Сообщений: 1180

Пост 24-Май-2015 21:19 (спустя 27 дней)

[Цитировать]

Спасибо за новую серию, но нам зрителям как всегда мало... вы уж не сердитесь на нас за это. Вдохновения в дальнейшей работе над проектом и спасибо за нее.
[Профиль] [ЛС]
Показать сообщения:    
Ответить на тему

Текущее время: Сегодня 20:40

Часовой пояс: GMT



Вы не можете начинать темы
Вы не можете отвечать на сообщения
Вы не можете редактировать свои сообщения
Вы не можете удалять свои сообщения
Вы не можете голосовать в опросах
Вы не можете прикреплять файлы к сообщениям
Вы не можете скачивать файлы