Жалобы на работу трекера ! прошу сюда :)

Каин и Авель / Cain and Abel / Kaingwa Abel [20/20] (Ким Хён Сик/Kim Hyeong Sik) [2009 г., драма, боевик, TVRip] [360р] DVO GREEN TEA

Страницы :  1, 2  След.

Ответить на тему
 
Автор Сообщение

vredina176 ®

Стаж: 3 года 1 месяц

Сообщений: 25

Откуда: Ростов-на-Дону

Пост 13-Дек-2014 19:37

[Цитировать]

Каин и Авель
Cain and Abel / Kaingwa Abel
Год выпуска: 2009
Страна: Южная Корея
Жанр: драма, боевик
Продолжительность: 20/20-Перевод: Двухголосый (закадровый) Юлия Балиева и Ми24

СЭМПЛ-Режиссер: Ким Хён Сик/Kim Hyeong SikВ ролях:
Со Чжи Соп/So Ji Sub в роли Ли Чо Ина
Шин Хён Чжун/Shin Hyeon Joon в роли Ли Сон У
Чэ Чжон Ан/Chae Jeong An в роли Ким Со Ён
Хан Чжи Мин/Han Ji Min в роли О Ён Чжи
-Описание: Все мы помним библейский сюжет о первом человекоубийстве. Братоубийстве.
Два брата. Два талантливых . Одна клиника. Одна женщина.
Спустя 7 лет после внезапного отъезда, в Южную Корею возвращается Ли Сон У - талантливый и признанный коллегами хирург. На родине многое изменилось. Мать борется за власть в больнице, отец лежит в коме, а любимая девушка после долгого ожидания предпочла младшего брата – тоже хирурга Чо Ина. Чо Ин – веселый, добрый и открытый, безмерно счастлив возвращению брата. Он всегда идеализировал его, считая образцом для подражания. А вот чувства Сон У к брату не столь чисты. Он любит его, но одновременно завидует и ревнует. Ему всегда казалось, что отец любил сильнее младшего. Да еще и мать подпитывает его своей ненавистью к Чо Ину. Много лет назад отец усыновил его без ее согласия. До чего может довести ненависть брата к брату? (terra)-Доп. информация:
Перевод: terra и grisanna2001
Релиз группы:
Работа со звуком и оформление постера: Ольга Гринтиева-
ДОБАВЛЕНЫ 13-20 СЕРИИ

Альтернативная раздача 1280х720
ОСТ к дораме Каин и Авель-Качество: HDTVRip
Формат: AVI
Видео кодек: DivX 5
Аудио кодек: MP3
Видео: 640x352, 29.970 fps, 1 239 kbps
Аудио: 48.0 KHz, 192 Кбит/c, 2 канала

Скриншоты

MediaInfo

Общее
Полное имя : C:\...\[GREEN TEA] Каин и Авель 360р\[GREEN TEA] Каин и Авель 01.avi
Формат : AVI
Формат/Информация : Audio Video Interleave
Размер файла : 673 Мбайт
Продолжительность : 1 ч. 5 м.
Общий поток : 1443 Кбит/сек
Программа кодирования : VirtualDubMod 1.5.10.2 (build 2540/release)
Библиотека кодирования : VirtualDubMod build 2540/release
Видео
Идентификатор : 0
Формат : MPEG-4 Visual
Профиль формата : Simple@L3
Параметр BVOP формата : Нет
Параметр QPel формата : Нет
Параметр GMC формата : Без точки перехода
Параметр матрицы формата : Default (H.263)
Идентификатор кодека : DX50
Идентификатор кодека/Подсказка : DivX 5
Продолжительность : 1 ч. 5 м.
Битрейт : 1239 Кбит/сек
Ширина : 640 пикселей
Высота : 352 пикселя
Соотношение сторон : 16:9
Частота кадров : 29,970 кадров/сек
Цветовое пространство : YUV
Субдискретизация насыщенности : 4:2:0
Битовая глубина : 8 бит
Тип развёртки : Прогрессивная
Метод сжатия : С потерями
Бит/(Пиксели*Кадры) : 0.184
Размер потока : 578 Мбайт (86%)
Библиотека кодирования : XviD 63
Аудио
Идентификатор : 1
Формат : MPEG Audio
Версия формата : Version 1
Профиль формата : Layer 3
Режим : Joint stereo
Идентификатор кодека : 55
Идентификатор кодека/Подсказка : MP3
Продолжительность : 1 ч. 5 м.
Вид битрейта : Постоянный
Битрейт : 192 Кбит/сек
Каналы : 2 канала
Частота : 48,0 КГц
Метод сжатия : С потерями
Размер потока : 89,6 Мбайт (13%)
Выравнивание : Соединение по промежуткам
Продолжительность промежутка : 33 мс. (1,00 видеокадр)
Время предзагрузки промежутка : 504 мс.

_________________


Последний раз редактировалось: vredina176 (2014-12-18 17:30), всего редактировалось 1 раз
[Профиль] [ЛС]

Tainted-love

Стаж: 2 года 11 месяцев

Сообщений: 1180

Пост 14-Дек-2014 00:12 (спустя 4 часа)

[Цитировать]

За маленькую раздачу спасибо огромное!
[Профиль] [ЛС]

vredina176 ®

Стаж: 3 года 1 месяц

Сообщений: 25

Откуда: Ростов-на-Дону

Пост 14-Дек-2014 13:01 (спустя 12 часов)

[Цитировать]

Tainted-love, Всегда пожалуйста)

_________________
[Профиль] [ЛС]

Ланочка10_83

Стаж: 3 года 1 месяц

Сообщений: 131

Пост 16-Дек-2014 03:13 (спустя 1 день 14 часов)

[Цитировать]

Ухты огромное спасибо!!! :)
[Профиль] [ЛС]

dusy78

Стаж: 3 года 10 месяцев

Сообщений: 1005

Откуда: Россия

Пост 19-Дек-2014 10:51 (спустя 3 дня)

[Цитировать]

Добавлена 2 серия!
[Профиль] [ЛС]

Tainted-love

Стаж: 2 года 11 месяцев

Сообщений: 1180

Пост 01-Фев-2015 22:00 (спустя 1 месяц 13 дней)

[Цитировать]

А третью серию можно и сюда добавить... заранее благодарю. br
[Профиль] [ЛС]

Tainted-love

Стаж: 2 года 11 месяцев

Сообщений: 1180

Пост 01-Фев-2015 22:03 (спустя 2 минуты)

[Цитировать]

Ой..ой прошу прощения озвучены только две серии... я как всегда поторопилась... извиняюсь. bh
[Профиль] [ЛС]

Ланочка10_83

Стаж: 3 года 1 месяц

Сообщений: 131

Пост 02-Фев-2015 03:57 (спустя 5 часов)

[Цитировать]

Tainted-love,
уже 4 серии озвучены, вот только сюда еще пока не добавлены.(((
[Профиль] [ЛС]

Tainted-love

Стаж: 2 года 11 месяцев

Сообщений: 1180

Пост 02-Фев-2015 08:18 (спустя 4 часа)

[Цитировать]

А вот это... очень интересно.
[Профиль] [ЛС]

Tashalia

Стаж: 2 года 6 месяцев

Сообщений: 7

Пост 03-Мар-2015 03:03 (спустя 1 месяц)

[Цитировать]

Здравствуйте. А когда обновится раздача? А то уже 7 серий озвучены, а тут всего две. Заранее спасибо)
[Профиль] [ЛС]

dusy78

Стаж: 3 года 10 месяцев

Сообщений: 1005

Откуда: Россия

Пост 03-Мар-2015 19:17 (спустя 16 часов)

[Цитировать]

Tashalia, раздача будет обновлена )))
[Профиль] [ЛС]

Дарья

Стаж: 3 года 10 месяцев

Сообщений: 211

Пост 04-Мар-2015 10:38 (спустя 15 часов)

[Цитировать]

Добавлены 3-6 серии!

_________________
[Профиль] [ЛС]

Tainted-love

Стаж: 2 года 11 месяцев

Сообщений: 1180

Пост 04-Май-2015 16:54 (спустя 2 месяца)

[Цитировать]

Давненько ничего не было...
[Профиль] [ЛС]

dusy78

Стаж: 3 года 10 месяцев

Сообщений: 1005

Откуда: Россия

Пост 12-Май-2015 04:40 (спустя 7 дней)

[Цитировать]

Добавлены 7-10 серии!
[Профиль] [ЛС]

dusy78

Стаж: 3 года 10 месяцев

Сообщений: 1005

Откуда: Россия

Пост 18-Май-2015 16:00 (спустя 6 дней)

[Цитировать]

Добавлены 11-12 серии!
[Профиль] [ЛС]
Показать сообщения:    
Ответить на тему

Текущее время: Сегодня 05:47

Часовой пояс: GMT



Вы не можете начинать темы
Вы не можете отвечать на сообщения
Вы не можете редактировать свои сообщения
Вы не можете удалять свои сообщения
Вы не можете голосовать в опросах
Вы не можете прикреплять файлы к сообщениям
Вы не можете скачивать файлы