Жалобы на работу трекера ! прошу сюда :)

Школа "Маджиска" 4 / Majisuka Gakuen 4 [10/10] [школа, драма, 2015г] [720] DVO GREEN TEA

Ответить на тему
 
Автор Сообщение

Nas ®

Стаж: 3 года 10 месяцев

Сообщений: 372

Пост 23-Мар-2015 20:36

[Цитировать]

Школа "Маджиска" 4 / Majisuka Gakuen 4
-
Год выпуска: 2015
Страна: Япония
Жанр: школа, драма
Продолжительность: 10/10
-
Перевод: Двуголосый закадровый Антонина Лазаревская и Анастасия Романова
-
В ролях: Ватанабэ Миюки, Такахаши Минами, Симадзаки Харука, Кодзима Харуна, Сасихара Рино, Ямамото Саяка
Описание:В этом сезоне ведущие роли будут играть Сакура Мияваки и Харука Шимазаки. Сакура будет пытаться стать главой школы, а Харука является нынешним лидером. Кроме того, Саяка Ямамото и Миюки Ватанабе будут студентами школы-соперника, "Гекиоко". Также, в качестве приглашённых актрис, появятся Харуна Кодзима, Сасихара Рино и др.
-
Доп. информация:
Перевод: фансаб-группа"Ame no Violinist"
Релиз группы GREEN TEA
Оформление постера: Елена Горборукова
-
Неотключаемые субтитры: Хардсаб (хардсаб на надписи и лого группы)
Формат: AVI
Видео: AVI, H264, 1280х720, 29.970 fps, ~ 1 427 Kbps
Аудио: RUS(int), MP3, 2ch, 48.0 KHz, 192 Kbps

Медиаинфо

Video
ID : 0
Format : AVC
Format/Info : Advanced Video Codec
Format profile : High@L3.1
Format settings, CABAC : Yes
Format settings, ReFrames : 4 frames
Codec ID : H264
Duration : 22mn 57s
Bit rate : 1 427 Kbps
Width : 1 280 pixels
Height : 720 pixels
Display aspect ratio : 16:9
Frame rate : 29.970 fps
Color space : YUV
Chroma subsampling : 4:2:0
Bit depth : 8 bits
Scan type : Progressive
Bits/(Pixel*Frame) : 0.052
Stream size : 234 MiB (88%)
Writing library : x264 core 130 r2273 b3065e6
Audio
ID : 1
Format : MPEG Audio
Format version : Version 1
Format profile : Layer 3
Mode : Joint stereo
Codec ID : 55
Codec ID/Hint : MP3
Duration : 22mn 57s
Bit rate mode : Constant
Bit rate : 192 Kbps
Channel(s) : 2 channels
Sampling rate : 48.0 KHz
Compression mode : Lossy
Stream size : 31.5 MiB (12%)
Alignment : Aligned on interleaves
Interleave, duration : 33 ms (1.00 video frame)
Interleave, preload duration : 504 ms

Скриншоты



Последний раз редактировалось: Nas (2015-04-24 19:27), всего редактировалось 5 раз(а)
[Профиль] [ЛС]

Паладин123

Стаж: 1 год 11 месяцев

Сообщений: 5

Пост 27-Мар-2015 17:45 (спустя 3 дня)

[Цитировать]

После 3 сезона снова в школу? 3 сезон вообще ни о чём. Надеюсь этот будет поинтересней.
[Профиль] [ЛС]

Nas ®

Стаж: 3 года 10 месяцев

Сообщений: 372

Пост 31-Мар-2015 17:16 (спустя 3 дня)

[Цитировать]

Добавлены 2-3 серии!
[Профиль] [ЛС]

Nas ®

Стаж: 3 года 10 месяцев

Сообщений: 372

Пост 02-Апр-2015 19:49 (спустя 2 дня 2 часа)

[Цитировать]

Добавлена 4 серия!
[Профиль] [ЛС]

Nas ®

Стаж: 3 года 10 месяцев

Сообщений: 372

Пост 08-Апр-2015 09:49 (спустя 5 дней)

[Цитировать]

Добавлены 5-6 серии!
[Профиль] [ЛС]

Nas ®

Стаж: 3 года 10 месяцев

Сообщений: 372

Пост 10-Апр-2015 16:48 (спустя 2 дня 6 часов)

[Цитировать]

Добавлена 7 серия!
[Профиль] [ЛС]

Nas ®

Стаж: 3 года 10 месяцев

Сообщений: 372

Пост 24-Апр-2015 19:29 (спустя 14 дней)

[Цитировать]

Добавлены 8-10 серии!
[Профиль] [ЛС]

simka

Стаж: 3 года 10 месяцев

Сообщений: 94

Пост 24-Апр-2015 20:07 (спустя 38 минут)

[Цитировать]

Спасибо, есть возможность все 4 сезона одной раздачей залить?

_________________

.


Слава-Україна! Героям-Слава!
[Профиль] [ЛС]

Molot1977

Стаж: 2 года

Сообщений: 2

Пост 17-Май-2015 03:10 (спустя 22 дня)

[Цитировать]

Друзья, кто есть здесь. Очень хочу записать этот фильм. Он мой самый любимый. Пожалуйста оставайтесь здесь, чтобы я смог всё же докачать. Скорости почти нету....
[Профиль] [ЛС]

Mirovoy

Стаж: 1 год 2 месяца

Сообщений: 1

Пост 05-Окт-2015 06:37 (спустя 4 месяца 19 дней)

[Цитировать]

Я че-та не понял? А где озвучка пятого сезона?
[Профиль] [ЛС]
Показать сообщения:    
Ответить на тему

Текущее время: Сегодня 16:02

Часовой пояс: GMT



Вы не можете начинать темы
Вы не можете отвечать на сообщения
Вы не можете редактировать свои сообщения
Вы не можете удалять свои сообщения
Вы не можете голосовать в опросах
Вы не можете прикреплять файлы к сообщениям
Вы не можете скачивать файлы