Жалобы на работу трекера ! прошу сюда :)

Уроборос / Ouroboros (Ишии Ясухару / Ishii Yasuharu ) [10/10] [2015 г., драма, экшн, TVRip] [360p] DVO GREEN TEA

Ответить на тему
 
Автор Сообщение

dusy78 ®

Стаж: 3 года 10 месяцев

Сообщений: 1005

Откуда: Россия

Пост 21-Сен-2015 12:09

[Цитировать]

Уроборос / Ouroboros
Год выпуска: 2015
Страна: Япония
Жанр: драма, экшн
Продолжительность: 10/10
Озвучивание: Иван Матроскин (Мтрск) и Анастасия Леглер
СЕМПЛ: https://yadi.sk/i/FnSYVSqFjDjZy
Режиссер: Ишии Ясухару / Ishii Yasuharu (Белая лаборатория, Токагэ - детектив под прикрытием, Лучшее завершение жизни-Организатор похорон)
В ролях:
Икута Тома,
Огури Шун
Хиросуэ Рёко,
Симада Кюсаку,
Такито Кэнъити,
Мицуси Кен,
Уэно Джури,
Даити Ясуо,
Сэйно Нана
Описание: Два друга детства - сироты и жили в одном семейном детском доме. Однажды, они стали свидетелями убийства учителя начальной школы - Юки, девушки, заботившейся об этих мальчиках как настоящая старшая сестра, и которую они называли "сенсей". Но полицейский с золотыми часами на руке угрозой заставил их молчать об этом. Дети не сдались и поклялись друг другу, что однажды сами найдут убийц и покарают их. Пятнадцать лет спустя, Рюзаки Ико (Икута Тома) - детектив. Он - хороший человек, и количество совершенных им арестов является самым высоким в полицейском участке. Между тем, используя свои внешние данные и ум, Данно Тацуя (Огури Сюн) становится лидером клана якудз. Теперь два друга детства тайно работают вместе, чтобы выяснить правду и отомстить за своего сенсея ...
Доп. информация:
Перевод: фансаб группы Мания
Релиз группы:
Оформление постера: Дина Фаткулина
Работа со звуком: Иван Матроскин (Мтрск)
Качество: TVRip
Формат: AVI
Видео кодек: XviD
Аудио кодек: MP3
Видео: 1 400 Kbps, 640х360, 24.000 fps
Аудио: 48 kHz, 192 Кбит/с, 2 ch
ОСТ к дораме Уроборос
!!! Альтернативная раздача 1280х720

Скриншоты

MediaInfo

Format : AVI
Format/Info : Audio Video Interleave
File size : 692 MiB
Duration : 1h 0mn
Overall bit rate mode : Variable
Overall bit rate : 1 605 Kbps
Writing application : VirtualDubMod 1.5.10.3 | www.virtualdub-fr.org || (build 2550/release)
Writing library : VirtualDubMod build 2550/release
Video
ID : 0
Format : MPEG-4 Visual
Format profile : Advanced Simple@L5
Format settings, BVOP : 2
Format settings, QPel : No
Format settings, GMC : No warppoints
Format settings, Matrix : Default (MPEG)
Codec ID : XVID
Codec ID/Hint : XviD
Duration : 1h 0mn
Bit rate : 1 401 Kbps
Width : 640 pixels
Height : 360 pixels
Display aspect ratio : 16:9
Frame rate : 24.000 fps
Color space : YUV
Chroma subsampling : 4:2:0
Bit depth : 8 bits
Scan type : Progressive
Compression mode : Lossy
Bits/(Pixel*Frame) : 0.253
Stream size : 604 MiB (87%)
Writing library : XviD 1.2.1 (UTC 2008-12-04)
Audio
ID : 1
Format : MPEG Audio
Format version : Version 1
Format profile : Layer 3
Mode : Joint stereo
Codec ID : 55
Codec ID/Hint : MP3
Duration : 1h 0mn
Bit rate mode : Variable
Bit rate : 192 Kbps
Channel(s) : 2 channels
Sampling rate : 44.1 KHz
Compression mode : Lossy
Stream size : 82.8 MiB (12%)
Alignment : Aligned on interleaves
Interleave, duration : 26 ms (0.63 video frame)
Interleave, preload duration : 500 ms
[Профиль] [ЛС]

Katherine

Стаж: 3 года 10 месяцев

Сообщений: 48

Пост 29-Сен-2015 08:29 (спустя 7 дней)

[Цитировать]

ну наконец-то)))

_________________
[Профиль] [ЛС]
Показать сообщения:    
Ответить на тему

Текущее время: Сегодня 10:33

Часовой пояс: GMT



Вы не можете начинать темы
Вы не можете отвечать на сообщения
Вы не можете редактировать свои сообщения
Вы не можете удалять свои сообщения
Вы не можете голосовать в опросах
Вы не можете прикреплять файлы к сообщениям
Вы не можете скачивать файлы