Жалобы на работу трекера ! прошу сюда :)

ЧАСТИ-О / O-PARTS/О-ПАРТС (Kazuhisa Imai, Hisashi Ueda) (4/4) [RUS (int)] [Япония, 2012 г., саспенс, фантастика, DTVRip] [RAW]

Ответить на тему
 
Автор Сообщение

balic ®

Стаж: 3 года 10 месяцев

Сообщений: 324

Пост 05-Окт-2013 14:12

[Цитировать]

ЧАСТИ-О / O-PARTS /О-ПАРТС
Страна: Япония
Жанр: саспенс, фантастика
Год выпуска: 2012
Продолжительность: 4 серии ~ 40 мин
Перевод: Любительский одноголосый закадровый
СЭМПЛ http://multi-up.com/848579
В ролях:
Maruyama Ryuhei
Kutsuna Shiori
Ito Ayumi
Sometani Shota
Takanashi Rin
Kawashima Junya
Fukikoshi Mitsuru
Yoshida Kotaro
Описание:
Токио будоражат странные преступления. У большого количества людей внезапно начинает течь кровь из ушей, рта и глаз. А кого-то находят мёртвым. Для расследования этих событий правительство, по никому не ведомым соображениям, собирает группу из пяти человек - безработного, домохозяйки, затворника, бывшего университетского профессора и загадочной девушки. Как оказалось, правительство заранее предупреждали о преступлениях. Только вот кто? И откуда он знал? ©tiranaoki
Примечание. O-PARTS - аббревиатура от out-of-place artifacts (предметы, не соответствующие месту и времени).
Релиз: группа GREEN TEA :
Доп. информация:
Перевод:фансаб-группа "Альянс"
Озвучивание: balic
Оформление постера: dusy78
Неотключаемые субтитры: Полухардсаб
Качество видео: HDTVRip
Формат: AVI
Видео: MPEG4 Video (H264) 720x404 29.970 fps
Аудио:MP3 48000Hz stereo 192 kbps
Язык: Русский (в составе контейнера) Аудио кодек MP3 Каналов 2 Частота 48 Битрейт 192

Медиаинфо

General
Complete name : E:\aпартнер\O-PARTS\oparts\[GREEN TEA] O-Parts\[green-tea.tv] O-PARTS 1.avi
Format : AVI
Format/Info : Audio Video Interleave
File size : 539 MiB
Duration : 36mn 58s
Overall bit rate : 2 039 Kbps
Writing application : VirtualDubMod 1.5.10.2 (build 2540/release)
Writing library : VirtualDubMod build 2540/release
Video
ID : 0
Format : AVC
Format/Info : Advanced Video Codec
Format profile : Main@L3.0
Format settings, CABAC : Yes
Format settings, ReFrames : 2 frames
Codec ID : H264
Duration : 36mn 58s
Bit rate : 1 845 Kbps
Width : 720 pixels
Height : 404 pixels
Display aspect ratio : 16:9
Frame rate mode : Variable
Frame rate : 29.970 fps
Color space : YUV
Chroma subsampling : 4:2:0
Bit depth : 8 bits
Scan type : Progressive
Bits/(Pixel*Frame) : 0.212
Stream size : 485 MiB (90%)
Writing library : x264 core 112 r1834 a51816a
Encoding settings : cabac=1 / ref=1 / deblock=1:0:0 / analyse=0x1:0 / me=dia / subme=2 / psy=1 / psy_rd=0.00:0.00 / mixed_ref=0 / me_range=16 / chroma_me=1 / trellis=0 / 8x8dct=0 / cqm=0 / deadzone=21,11 / fast_pskip=1 / chroma_qp_offset=0 / threads=1 / sliced_threads=0 / nr=0 / decimate=1 / interlaced=0 / constrained_intra=0 / bframes=3 / b_pyramid=0 / b_adapt=1 / b_bias=0 / direct=3 / weightb=0 / open_gop=0 / weightp=2 / keyint=250 / keyint_min=25 / scenecut=40 / intra_refresh=0 / rc_lookahead=40 / rc=abr / mbtree=1 / bitrate=1845 / ratetol=1.0 / qcomp=0.60 / qpmin=10 / qpmax=51 / qpstep=4 / ip_ratio=1.41 / aq=1:1.00
Audio
ID : 1
Format : MPEG Audio
Format version : Version 1
Format profile : Layer 3
Mode : Joint stereo
Codec ID : 55
Codec ID/Hint : MP3
Duration : 36mn 58s
Bit rate mode : Constant
Bit rate : 192 Kbps
Channel(s) : 2 channels
Sampling rate : 48.0 KHz
Compression mode : Lossy
Stream size : 50.8 MiB (9%)
Alignment : Aligned on interleaves
Interleave, duration : 33 ms (1.00 video frame)
Interleave, preload duration : 504 ms

Скриншоты

[Профиль] [ЛС]
Показать сообщения:    
Ответить на тему

Текущее время: Сегодня 04:10

Часовой пояс: GMT



Вы не можете начинать темы
Вы не можете отвечать на сообщения
Вы не можете редактировать свои сообщения
Вы не можете удалять свои сообщения
Вы не можете голосовать в опросах
Вы не можете прикреплять файлы к сообщениям
Вы не можете скачивать файлы