Жалобы на работу трекера ! прошу сюда :)

Богатый мужчина, бедная женщина / Rich Man, Poor Woman [11/11] [Масаки Нисиура, Рё Танака, мелодрама,] 720р

Ответить на тему
 
Автор Сообщение

Nas ®

Стаж: 3 года 10 месяцев

Сообщений: 372

Пост 05-Окт-2013 16:41

[Цитировать]

Богатый мужчина, бедная женщина / Rich Man, Poor Woman
-
Год выпуска: 2013
Страна: Япония
Жанр: мелодрама
Продолжительность: сериал, 11 серий (40-50 мин)
-
Перевод: Двухголосый (закадровый) Ульяна Громова и Франк Цветков
СЭМПЛ:
http://www.fayloobmennik.net/3304722
-
Режиссер:
Масаки Нисиура, Рё Танака
В ролях:
Oguri Shun – Хьюга Тору, Ishihara Satomi – Саваки Тихиро, Aibu Saki – Асахина Ёко, Arata – Асахина Косукэ, Asari Yosuke – Ясуока Мития, Nakahara Takeo - Фуэки Тадамаса, Nakamura Yasuhi – Огава Сатоши, Furukawa Yuki – Куга Томоки, Nomura Masumi – Оно Харука, Yagi Nozomi – Миямаэ Томока, Maikawa Aiku – Татэиши
Описание:
29-летний Тору Хьюга – миллиардер, сколотивший состояние, ещё учась в университете, на своём хобби: веб-сайтах и компьютерных разработках. Он не любит общаться с людьми, не запоминает их имён и лиц (они ему неинтересны), подозревает всех кругом в алчности и желании сблизиться с ним только из-за денег.
Тихиро Саваки – трудолюбивая, умная и упорная студентка Токийского университета. Но вот беда – несмотря на все её старания, ей никак не удаётся устроиться на работу. Так уж случается, что во время презентации новой концепции компании "NEXT INNOVATION”, президентом которой как раз и является Хьюга, наш гениальный инноватор, разработчик и т.д. в одном флаконе, вступает в спор с Саваки, и – о, чудо! – запоминает имя девушки.
Так Саваки Тихиро начинает работать вместе с Хьюга. Вопреки некой эксцентричности и недружелюбности своего босса, Саваки вскоре понимает, насколько он одинок, начинает испытывать к нему симпатию. Да и холодный, человеконелюбивый Хьюга тоже влюбляется в свою сотрудницу…
-
Доп. информация:
Перевод: ФСГ "Альянс"
Перевод: Kislinka, Takagi
Редакция : Breeze

Релиз группы GREEN TEA
Оформление постера: Amoreoni
-
Качество: HDTV
Формат: AVI
Видео кодек:AVC
Аудио кодек: MP3
Видео:1 280 на 720, 16:9, 29.970 fps
Аудио:192 Kbps, 2 channels, 48.0 KHz

Медиаинфо

General
Complete name : D:\GREEN-TEA\[GREEN TEA] Rich Man, Poor Woman\[GREEN TEA] Rich Man, Poor Woman 01.avi
Format : AVI
Format/Info : Audio Video Interleave
File size : 1.28 GiB
Duration : 57mn 41s
Overall bit rate : 3 187 Kbps
Writing application : VirtualDubMod 1.5.10.2 (build 2540/release)
Writing library : VirtualDubMod build 2540/release
Video
ID : 0
Format : AVC
Format/Info : Advanced Video Codec
Format profile : High@L5.1
Format settings, CABAC : Yes
Format settings, ReFrames : 6 frames
Codec ID : H264
Duration : 57mn 41s
Bit rate : 2 983 Kbps
Nominal bit rate : 2 429 Kbps
Width : 1 280 pixels
Height : 720 pixels
Display aspect ratio : 16:9
Frame rate : 29.970 fps
Color space : YUV
Chroma subsampling : 4:2:0
Bit depth : 8 bits
Scan type : Progressive
Bits/(Pixel*Frame) : 0.108
Stream size : 1.20 GiB (94%)
Writing library : x264 core 115 r2008kMod 4c552d8
Encoding settings : cabac=1 / ref=6 / deblock=1:0:0 / analyse=0x3:0x13 / me=umh / subme=7 / psy=1 / fade_compensate=0.00 / psy_rd=1.00:0.00 / mixed_ref=1 / me_range=16 / chroma_me=1 / trellis=1 / 8x8dct=1 / cqm=0 / deadzone=21,11 / fast_pskip=1 / chroma_qp_offset=-2 / threads=4 / sliced_threads=1 / slices=4 / nr=0 / decimate=1 / interlaced=0 / bluray_compat=0 / constrained_intra=0 / bframes=0 / weightp=2 / keyint=250 / keyint_min=25 / scenecut=40 / intra_refresh=0 / rc_lookahead=0 / rc=abr / mbtree=0 / bitrate=2429 / ratetol=1.0 / qcomp=0.60 / qpmin=10 / qpmax=51 / qpstep=4 / vbv_maxrate=3000 / vbv_bufsize=3000 / nal_hrd=none / ip_ratio=1.40 / aq=1:1.00
Audio
ID : 1
Format : MPEG Audio
Format version : Version 1
Format profile : Layer 3
Mode : Joint stereo
Mode extension : MS Stereo
Codec ID : 55
Codec ID/Hint : MP3
Duration : 57mn 41s
Bit rate mode : Constant
Bit rate : 192 Kbps
Channel count : 2 channels
Sampling rate : 48.0 KHz
Compression mode : Lossy
Stream size : 79.2 MiB (6%)
Alignment : Aligned on interleaves
Interleave, duration : 33 ms (1.00 video frame)
Interleave, preload duration : 504 ms

Скриншоты



Последний раз редактировалось: Nas (2014-05-29 18:59), всего редактировалось 4 раз(а)
[Профиль] [ЛС]

Playery1

Стаж: 3 года 1 месяц

Сообщений: 1

Пост 18-Окт-2013 17:22 (спустя 13 дней)

[Цитировать]

Добавьте, пожалуйста, информацию о видео-кодеке.
[Профиль] [ЛС]

ilnar163

Стаж: 3 года

Сообщений: 1

Пост 10-Янв-2014 19:56 (спустя 2 месяца 23 дня)

[Цитировать]

а спешл будет?
[Профиль] [ЛС]

Ульяна Громова

Стаж: 3 года 10 месяцев

Сообщений: 219

Пост 11-Янв-2014 04:53 (спустя 8 часов)

[Цитировать]

ilnar163, сериал озвучивался на платной основе при поддержке зрителей. Если спешл будет проплачен, то будет. Но пока никто из зрителей не проявлял инициативу.
[Профиль] [ЛС]

МаринаМакеева

Стаж: 2 года 10 месяцев

Сообщений: 1

Пост 17-Янв-2014 17:33 (спустя 6 дней)

[Цитировать]

Я скачала, а у меня почему-то звук идет, а видео сильно затормаживает
[Профиль] [ЛС]

Ульяна Громова

Стаж: 3 года 10 месяцев

Сообщений: 219

Пост 17-Янв-2014 18:13 (спустя 39 минут)

[Цитировать]

МаринаМакеева, 1. обновите кодеки
2. слишком старый комп и видеокарта не тянет какой размер
[Профиль] [ЛС]

Inessa

Стаж: 3 года 9 месяцев

Сообщений: 40

Пост 09-Фев-2014 12:56 (спустя 22 дня)

[Цитировать]

Спасибо
[Профиль] [ЛС]

anuta_kirova

Стаж: 2 года 8 месяцев

Сообщений: 2

Пост 06-Апр-2014 08:39 (спустя 1 месяц 24 дня)

[Цитировать]

Спасибулички!

_________________
Grazzle.com - имиджевая рекламная сеть. Реф. программа до 5%
[Профиль] [ЛС]

LapkaLee

Стаж: 3 года 1 месяц

Сообщений: 14

Откуда: Ялта, Крым

Пост 08-Май-2014 12:59 (спустя 1 месяц 2 дня)

[Цитировать]

Хорошая дорама.
Стоит посмотреть. bs

_________________
Практический психолог-эзотерик – pava.yalta.ua
[Профиль] [ЛС]

Виктория

Стаж: 2 года 6 месяцев

Сообщений: 1

Пост 05-Июн-2014 06:22 (спустя 27 дней)

[Цитировать]

Большое спасибо! Не так давно смотрела данную дораму, но все-равно захотелось пересмотреть еще раз, актеры понравились.
[Профиль] [ЛС]

OreoneS

Стаж: 2 года 8 месяцев

Сообщений: 8

Пост 17-Июн-2014 15:44 (спустя 12 дней)

[Цитировать]

Я не большой любитель Японских дорам но эта понравилась, спасибо!

_________________
[Профиль] [ЛС]

Nana

Стаж: 2 года 6 месяцев

Сообщений: 36

Пост 20-Июн-2014 13:51 (спустя 2 дня 22 часа)

[Цитировать]

Я не разделяю азиатские сериалы по параметрам: вот этот сериал - японский, а значит...
Мне безразлично такое. Мне в сериалах и в фильмах не важна страна производства.
Хотя могу все-таки признаться в отсутствии моей объективности в другом вопросе: первоначально меня завлекло то, что здесь играет Огури, но после просмотра первой серии данный мотив перестал быть первоначальным.
Увлекательно, иногда смешно или не очень, а игра актёров здесь действительно на высоте("вжились" в роль).
Большое спасибо за роботу!
[Профиль] [ЛС]

kska

Стаж: 2 года 2 месяца

Сообщений: 15

Пост 05-Май-2015 18:22 (спустя 10 месяцев 15 дней)

[Цитировать]

Вот только что закончила смотреть этот позитивный сериал, мне понравился, отдых и положительные эмоции гарантированы, невероятно красивая главная героиня (а губы просто обалденные у нее), харизматичный главный герой, отличный посыл, душа наполняется радостью и невольно улыбаешься bv Рекомендую к просмотру!
Отличная озвучка, низкий вам поклон!!! ax
[Профиль] [ЛС]
Показать сообщения:    
Ответить на тему

Текущее время: Сегодня 04:10

Часовой пояс: GMT



Вы не можете начинать темы
Вы не можете отвечать на сообщения
Вы не можете редактировать свои сообщения
Вы не можете удалять свои сообщения
Вы не можете голосовать в опросах
Вы не можете прикреплять файлы к сообщениям
Вы не можете скачивать файлы