Жалобы на работу трекера ! прошу сюда :)

Экономка Мита / Kaseifu no Mita [11/11] (Inomata Ryuichi, Sato Toya, Ishio Jun, Higurashi Ken) [2011 г., драма, мистерия, DTVRip] [RAW] [450p] VO GREEN TEA

Страницы :  1, 2  След.

Ответить на тему
 
Автор Сообщение

balic ®

Стаж: 3 года 10 месяцев

Сообщений: 324

Пост 05-Окт-2013 16:48

[Цитировать]

Экономка Мита / Kaseifu no Mita Страна: Япония
Год выпуска: 2011
Жанр: Драма, мистерия
Продолжительность: по 45 минут-Озвучка: Одноголосый (закадровый) Екатерина Юрьева
Сэмпл
-Режиссер: Inomata Ryuichi, Sato Toya, Ishio Jun, Higurashi Ken
В ролях:
Matsushima Nanako - Mita Akari
Hasegawa Hiroki - Asuda Keiichi
Aibu Saki - Yuki Urara
Kutsuna Shiori - Asuda Yui
Nakagawa Taishi - Asuda Kakeru
Ayabe Shuto - Asuda Kaito
Honda Miyu - Asuda Kii
Nonami Maho - Kazama Mie
Sato Hitomi - Minagawa Mariko
Hiraizumi Sei - Yuki Yoshiyuki
Shirakawa Yumi - Arumi Akemi-Описание
Однажды, в дом семьи Асуда входит нелюдимая экономка Мита.
Казалось бы, само совершенство, мечта всех домовладельцев, она оказывается далеко не такой простой.
С момента ее появления жизнь обитателей дома становится уже не такой как прежде.
Что ждет семью Асуда? Какую тайну хранит в себе никогда не улыбающаяся экономка?-Доп.информация:
Перевод: фансаб-группа "Альянс"
Релиз: группа "GREEN TEA"
Оформление постера: Стефания Саркинсон
Работа со звуком: Екатерина Юрьева

Неотключаемые субтитры: Без хардсаба-Качество видео: DTVRip
Формат: mkv
Видео кодек: H.264
Аудио кодек: MP3
Видео: 800x450, 900 Кбит/c, 29.97 fps
Аудио: 192 Кбит/c, 2 канала
!!! Альтернативная раздача: 1280х720 (MKV, mpeg4/avc)
ОСТ к дораме Экономка Мита

Скриншоты

Медиаинфо

бщее
Уникальный идентификатор : 187270021176816078092839028567173590966 (0x8CE2E4E6D22130258A2187A743796FB6)
Полное имя : G:\торренты\[green-tea.tv] Экономка Мита\[green-tea.tv]Экономка Мита эпизод 1.mkv
Формат : Matroska
Версия формата : Version 4 / Version 2
Размер файла : 335 Мбайт
Продолжительность : 57 м.
Общий поток : 817 Кбит/сек
Дата кодирования : UTC 2013-10-20 04:54:55
Программа кодирования : mkvmerge v6.4.1 ('Omega Point') built on Sep 16 2013 22:05:10
Библиотека кодирования : libebml v1.3.0 + libmatroska v1.4.1
Видео
Идентификатор : 1
Формат : AVC
Формат/Информация : Advanced Video Codec
Профиль формата : Main@L3.1
Параметр CABAC формата : Да
Параметр ReFrames формата : 1 кадр
Идентификатор кодека : V_MPEG4/ISO/AVC
Продолжительность : 57 м.
Битрейт : 627 Кбит/сек
Ширина : 800 пикселей
Высота : 452 пикселя
Соотношение сторон : 16:9
Режим частоты кадров : Постоянный
Частота кадров : 29,970 кадров/сек
Цветовое пространство : YUV
Субдискретизация насыщенности : 4:2:0
Битовая глубина : 8 бит
Тип развёртки : Прогрессивная
Бит/(Пиксели*Кадры) : 0.058
Размер потока : 250 Мбайт (75%)
Библиотека кодирования : x264 core 129
Настройки программы : cabac=1 / ref=1 / deblock=1:0:0 / analyse=0x1:0x131 / me=dia / subme=2 / psy=1 / psy_rd=1.00:0.00 / mixed_ref=0 / me_range=16 / chroma_me=1 / trellis=0 / 8x8dct=0 / cqm=0 / deadzone=21,11 / fast_pskip=1 / chroma_qp_offset=0 / threads=4 / lookahead_threads=1 / sliced_threads=0 / nr=0 / decimate=1 / interlaced=0 / bluray_compat=0 / constrained_intra=0 / bframes=0 / weightp=2 / keyint=250 / keyint_min=25 / scenecut=40 / intra_refresh=0 / rc_lookahead=40 / rc=abr / mbtree=1 / bitrate=627 / ratetol=1.0 / qcomp=0.60 / qpmin=10 / qpmax=51 / qpstep=4 / ip_ratio=1.41 / aq=1:1.00
Default : Да
Forced : Нет
Аудио
Идентификатор : 2
Формат : MPEG Audio
Версия формата : Version 1
Профиль формата : Layer 3
Режим : Joint stereo
Идентификатор кодека : A_MPEG/L3
Идентификатор кодека/Подсказка : MP3
Продолжительность : 57 м.
Вид битрейта : Постоянный
Битрейт : 192 Кбит/сек
Каналы : 2 канала
Частота : 48,0 КГц
Метод сжатия : С потерями
Размер потока : 78,8 Мбайт (23%)
Default : Да
Forced : Нет



Последний раз редактировалось: balic (2014-04-13 16:52), всего редактировалось 13 раз(а)
[Профиль] [ЛС]

dusy78

Стаж: 3 года 10 месяцев

Сообщений: 1005

Откуда: Россия

Пост 20-Окт-2013 11:43 (спустя 14 дней)

[Цитировать]

1 серия!
[Профиль] [ЛС]

balic ®

Стаж: 3 года 10 месяцев

Сообщений: 324

Пост 06-Дек-2013 09:07 (спустя 1 месяц 16 дней)

[Цитировать]

2 серия!
[Профиль] [ЛС]

balic ®

Стаж: 3 года 10 месяцев

Сообщений: 324

Пост 30-Дек-2013 17:45 (спустя 24 дня)

[Цитировать]

3 серия!
[Профиль] [ЛС]

BloodMister

Стаж: 3 года 1 месяц

Сообщений: 5

Пост 31-Дек-2013 21:34 (спустя 1 день 3 часа)

[Цитировать]

утонить встанте на раздачу(((
[Профиль] [ЛС]

balic ®

Стаж: 3 года 10 месяцев

Сообщений: 324

Пост 25-Янв-2014 07:30 (спустя 24 дня)

[Цитировать]

4 серия!
[Профиль] [ЛС]

balic ®

Стаж: 3 года 10 месяцев

Сообщений: 324

Пост 15-Фев-2014 06:25 (спустя 20 дней)

[Цитировать]

5 серия!
[Профиль] [ЛС]

Амальфи

Стаж: 3 года 10 месяцев

Сообщений: 264

Пост 22-Фев-2014 15:37 (спустя 7 дней)

[Цитировать]

Добавлена 6 серия! Приятного просмотра!
[Профиль] [ЛС]

Leno4ka

Стаж: 2 года 8 месяцев

Сообщений: 2

Пост 13-Мар-2014 15:19 (спустя 18 дней)

[Цитировать]

когда будет 7 серия?
[Профиль] [ЛС]

balic ®

Стаж: 3 года 10 месяцев

Сообщений: 324

Пост 13-Мар-2014 17:26 (спустя 2 часа 6 минут)

[Цитировать]

Leno4ka, это платный проект. Когда наберется сумма на 7 серию.
[Профиль] [ЛС]

balic ®

Стаж: 3 года 10 месяцев

Сообщений: 324

Пост 25-Мар-2014 15:26 (спустя 11 дней)

[Цитировать]

8 серия!
[Профиль] [ЛС]

j_777

Стаж: 3 года 9 месяцев

Сообщений: 302

Пост 26-Мар-2014 10:46 (спустя 19 часов)

[Цитировать]

Спасибо!
[Профиль] [ЛС]

balic ®

Стаж: 3 года 10 месяцев

Сообщений: 324

Пост 01-Апр-2014 18:11 (спустя 6 дней)

[Цитировать]

9 серия!
[Профиль] [ЛС]

balic ®

Стаж: 3 года 10 месяцев

Сообщений: 324

Пост 07-Апр-2014 08:22 (спустя 5 дней)

[Цитировать]

10 серия!
[Профиль] [ЛС]

balic ®

Стаж: 3 года 10 месяцев

Сообщений: 324

Пост 13-Апр-2014 16:53 (спустя 6 дней)

[Цитировать]

11 серия!
[Профиль] [ЛС]
Показать сообщения:    
Ответить на тему

Текущее время: Сегодня 10:32

Часовой пояс: GMT



Вы не можете начинать темы
Вы не можете отвечать на сообщения
Вы не можете редактировать свои сообщения
Вы не можете удалять свои сообщения
Вы не можете голосовать в опросах
Вы не можете прикреплять файлы к сообщениям
Вы не можете скачивать файлы