Жалобы на работу трекера ! прошу сюда :)

Уютный номер / Sweet Room (4/4) [RUS] [Япония, 2009 г., драма, романтика, эротика, +16, DVDRip] [RAW]

Ответить на тему
 
Автор Сообщение

Ульяна Громова ®

Стаж: 3 года 10 месяцев

Сообщений: 219

Пост 05-Окт-2013 20:07

[Цитировать]

Уютный номер / Sweet Room
Год выпуска: 2009
Страна: Япония
Жанр:драма, романтика, эротика
Продолжительность: 4 серии по 15-19 минут-Перевод: двухголосый закадровый Екатерина Юрьева (balic) и Кирилл Лавров (ZM-SHOW)
Семпл-Доп. информация:
Релиз: группа "GREEN TEA"
Перевод: 1-3 серии KKKity, 4 серия pandora2177
Качество: DVDRip
Формат: avi
Видео кодек: XviD
Аудио кодек: Mpeg Audio
Видео: 720x480 (1.50:1), 29.970 fps, XviD build 50 ~2309 kbps avg, 0.22 bit/pixel
Аудио: 48 kHz, MPEG Layer 3, 2 ch, ~128.00 kbps avg
Описание: 4 истории, объединяет которые место действия - шикарный номер отеля.
Данная дорама содержит эротические сцены, поэтому её не рекомендуется смотреть лицам моложе 16-ти лет.
1 история - Последняя любовь
В ролях: Narimiya Hiroki, Shiomi Yukari
Свободная модель и молодой фотограф, по уши влюблённый в неё. Почему она вдруг попросила сделать её фотографии?..
2 история - День Рождения
В ролях: Mukai Osamu
Подарок на День Рождения любимой - романтический вечер, такой, чтобы она почувствовала себя Джулией Робертс из "Красотки".
3 история - Треугольник
В ролях:Kaname Jun, Watanabe Naoko,Kubota Yuusuke
Зачем Мамору перед смертью снял для Рисы и Такаши номер в отеле? Что он этим хотел сказать?
4 история - Обслуживание в номерах
В ролях: Toyohara Kosuke
Он служащий отеля. Она - постоялица. Случайная встреча и быстрое расставание. Встретятся ли они снова?

Скриншоты

Медиаинфо

General
Complete name : E:\[GREEN TEA]Уютный номер\[GREEN TEA] Sweet Room - 1 Last Love.avi
Format : AVI
Format/Info : Audio Video Interleave
File size : 266 MiB
Duration : 15mn 35s
Overall bit rate : 2 386 Kbps
Writing application : VirtualDubMod 1.5.10.2 (build 2540/release)
Writing library : VirtualDubMod build 2540/release
Video
ID : 0
Format : MPEG-4 Visual
Format profile : Advanced Simple@L5
Format settings, BVOP : 2
Format settings, QPel : No
Format settings, GMC : No warppoints
Format settings, Matrix : Default (H.263)
Codec ID : XVID
Codec ID/Hint : XviD
Duration : 15mn 35s
Bit rate : 2 182 Kbps
Width : 720 pixels
Height : 480 pixels
Display aspect ratio : 3:2
Frame rate : 29.970 fps
Standard : NTSC
Color space : YUV
Chroma subsampling : 4:2:0
Bit depth : 8 bits
Scan type : Progressive
Compression mode : Lossy
Bits/(Pixel*Frame) : 0.211
Stream size : 243 MiB (91%)
Writing library : XviD 1.2.1 (UTC 2008-12-04)
Audio
ID : 1
Format : MPEG Audio
Format version : Version 1
Format profile : Layer 3
Mode : Joint stereo
Codec ID : 55
Codec ID/Hint : MP3
Duration : 15mn 35s
Bit rate mode : Constant
Bit rate : 192 Kbps
Channel(s) : 2 channels
Sampling rate : 48.0 KHz
Compression mode : Lossy
Stream size : 21.4 MiB (8%)
Alignment : Aligned on interleaves
Interleave, duration : 33 ms (1.00 video frame)
Interleave, preload duration : 504 ms
[Профиль] [ЛС]

Tainted-love

Стаж: 2 года 11 месяцев

Сообщений: 1180

Пост 03-Май-2014 15:33 (спустя 6 месяцев 28 дней)

[Цитировать]

Озвучка на высоте. Большое спасибо!!!!!!! Очень романтичные сцены, особенно второй рассказ. Вот пример молодым людям, хотя не только им. Рекомендую смотреть только на ночь, тогда прекрасные сны, окрашенные эротикой обеспечены.
[Профиль] [ЛС]

abbas

Стаж: 3 года

Сообщений: 9

Пост 14-Авг-2014 02:39 (спустя 3 месяца 10 дней)

[Цитировать]

Почему не скачивается плиизззз поставти на раздачу
[Профиль] [ЛС]
Показать сообщения:    
Ответить на тему

Текущее время: Сегодня 14:05

Часовой пояс: GMT



Вы не можете начинать темы
Вы не можете отвечать на сообщения
Вы не можете редактировать свои сообщения
Вы не можете удалять свои сообщения
Вы не можете голосовать в опросах
Вы не можете прикреплять файлы к сообщениям
Вы не можете скачивать файлы