Жалобы на работу трекера ! прошу сюда :)

Отомен / Otomen (Tanimura Masaki / Танимура Масаки) [12/12] [RUS(int)] [Япония, 2009, Романтика, комедия, школа, TVRip]

Ответить на тему
 
Автор Сообщение

_@Black_ ®

Стаж: 3 года 1 месяц

Сообщений: 10

Пост 08-Окт-2013 17:28

[Цитировать]

Отомен
Otomen

-Страна: Япония
Год выпуска: 2009
Жанр: Романтика, комедия, школа
Количество серий: 12/12-Озвучка: Одноголосый закадровый Михаил Черный
Сэмпл: http://multi-up.com/863497-Режиссер: Tanimura Masaki / Танимура Масаки
В ролях: Okada Masaki, Kaho, Kimura Ryo, Seto Koji, Yanagihara Kanako, Tsurumi Shingo, Yamamoto Mirai, Takada Nobuhiko
Описание:
История популярного в школе парня Masamune Асука, лучшего по кендо в стране. Тем не менее, под его крутой внешностью, скрывается сладкоежка и фанатик седзе манги, который в свободное время занимается шитьем и готовкой разных няшек на кухне. Но в школу переведена новая ученица Miyakozuka Рё, которая знает про его секретные способности к домоводству, парню есть чего боятся - девушка есть девушка, и его крутой образ будет разрушен одним её словом, но может, есть способ это предотвратить?-Доп. информация:
Озвучено по субтитрам фансаб-группы "Альянс"
Оформление постера: Дина Фаткулина
Координация и работа со звуком: Анастасия Романова и Ольга Гринтиева-Качество видео: TVRip
Формат: AVI
Видео: 704x396 (1.78:1), 29.970 fps, XviD build 50 ~1123 kbps avg, 0.13 bit/pixel
Аудио: 48 kHz, MPEG Layer 3, 2 ch, ~224.00 kbps avg-

MediaInfo

General
Complete name : D:\Мои видиозаписи\раздачи\Otomen\Otomen 1.avi
Format : AVI
Format/Info : Audio Video Interleave
File size : 355 MiB
Duration : 36mn 29s
Overall bit rate : 1 359 Kbps
Writing library : VirtualDub build 32842/release
Video
ID : 0
Format : MPEG-4 Visual
Format profile : Advanced Simple@L5
Format settings, BVOP : 2
Format settings, QPel : No
Format settings, GMC : No warppoints
Format settings, Matrix : Default (H.263)
Codec ID : XVID
Codec ID/Hint : XviD
Duration : 36mn 29s
Bit rate : 1 123 Kbps
Width : 704 pixels
Height : 396 pixels
Display aspect ratio : 16:9
Frame rate : 29.970 fps
Color space : YUV
Chroma subsampling : 4:2:0
Bit depth : 8 bits
Scan type : Progressive
Compression mode : Lossy
Bits/(Pixel*Frame) : 0.134
Stream size : 293 MiB (83%)
Writing library : XviD 1.2.1 (UTC 2008-12-04)
Audio
ID : 1
Format : MPEG Audio
Format version : Version 1
Format profile : Layer 3
Codec ID : 55
Codec ID/Hint : MP3
Duration : 36mn 29s
Bit rate mode : Constant
Bit rate : 224 Kbps
Channel(s) : 2 channels
Sampling rate : 48.0 KHz
Compression mode : Lossy
Stream size : 58.5 MiB (16%)
Alignment : Split accross interleaves
Interleave, duration : 33 ms (1.00 video frame)
Interleave, preload duration : 500 ms

Скриншоты



Последний раз редактировалось: _@Black_ (2014-03-07 14:09), всего редактировалось 4 раз(а)
[Профиль] [ЛС]

uekzuekz

Стаж: 3 года 9 месяцев

Сообщений: 34

Пост 09-Окт-2013 04:10 (спустя 10 часов)

[Цитировать]

Спасибо!!!! bp
[Профиль] [ЛС]

dusy78

Стаж: 3 года 10 месяцев

Сообщений: 1005

Откуда: Россия

Пост 09-Окт-2013 19:39 (спустя 15 часов)

[Цитировать]

Осталось 4 серии!!! Жду озвучку всего сериала!
[Профиль] [ЛС]

Ульяна Громова

Стаж: 3 года 10 месяцев

Сообщений: 219

Пост 25-Окт-2013 13:59 (спустя 15 дней)

[Цитировать]

Товарищи сидеры, поддайте газу)
[Профиль] [ЛС]

j_777

Стаж: 3 года 9 месяцев

Сообщений: 302

Пост 18-Ноя-2013 17:03 (спустя 24 дня)

[Цитировать]

Большое спасибо!!!!!!!!!!!!!!!!!!!!!!!!!!!!!!!!!!!!
[Профиль] [ЛС]

Nas

Стаж: 3 года 10 месяцев

Сообщений: 372

Пост 25-Ноя-2013 18:11 (спустя 7 дней)

[Цитировать]

Добавлена последняя серия! Приятного просмотра!
[Профиль] [ЛС]

Ланочка10_83

Стаж: 3 года 1 месяц

Сообщений: 131

Пост 26-Ноя-2013 02:13 (спустя 8 часов)

[Цитировать]

Спасибо! :)
С завершением проекта! bi
[Профиль] [ЛС]

Пост 26-Ноя-2013 08:35 (спустя 6 часов)

Топик был перенесен из форума Сериалы в форум Японские сериалы

Nas
 

Inessa

Стаж: 3 года 9 месяцев

Сообщений: 40

Пост 02-Мар-2014 17:14 (спустя 3 месяца 6 дней)

[Цитировать]

Спасибо!!!!
[Профиль] [ЛС]

Tainted-love

Стаж: 2 года 11 месяцев

Сообщений: 1180

Пост 03-Май-2014 15:16 (спустя 2 месяца)

[Цитировать]

Огромное спасибо!!! Очень хорошо озвучен сериал, да и сам он просто прелесть.
[Профиль] [ЛС]
Показать сообщения:    
Ответить на тему

Текущее время: Сегодня 15:57

Часовой пояс: GMT



Вы не можете начинать темы
Вы не можете отвечать на сообщения
Вы не можете редактировать свои сообщения
Вы не можете удалять свои сообщения
Вы не можете голосовать в опросах
Вы не можете прикреплять файлы к сообщениям
Вы не можете скачивать файлы