Жалобы на работу трекера ! прошу сюда :)

Озорной поцелуй: Любовь в Токио / Itazura na Kiss Love in Tokyo [16/16] [Rus(int)] [Япония, 2013, романтика, комедия, школа, HDTVRip] [RAW] VO (GREEN TEA)

Страницы :  1, 2  След.

Ответить на тему
 
Автор Сообщение

balic ®

Стаж: 3 года 10 месяцев

Сообщений: 324

Пост 18-Дек-2013 13:32

[Цитировать]

Описание:Озорной поцелуй: Любовь в Токио / Itazura na Kiss: Love in Tokyo
Страна: Япония
Год выпуска: 2013
Жанр: романтика, комедия, школа
Продолжительность: 16 серий
Перевод: Одноголосый (закадровый) Екатерина Юрьева
СЭМПЛ http://multi-up.com/879718-В ролях: Honoka Miki - Kotoko Aihara
Yuki Furukawa - Naoki Irie
Yuki Yamada - Kinnosuke Ikezawa-Описание:
На церемонии начала учебного года в средней школе Аихара Котоко, ученица класса отстающих, встречает мальчика — красавца и гения школы по имени Ириэ Наоки, чей IQ равен 200. Конечно она сразу влюбляется в него. Котоко долго не может признаться Наоки в своих чувствах, в конце концов она пишет любовное письмо, но (о ужас!), Наоки прилюдно его отвергает. Но на этом беды Котоко не заканчиваются, ее новый дом, в который они с отцом вложили все, рушится из-за попадания метеорита. Теперь им предстоит переехать в другу отца Котоко - Ири-тяну, который оказывается отцом того самого Ириэ Наоки...(c) Melind@
Новая японская экранизация популярной манги "Озорной поцелуй"
Доп.информация:
Релиз подготовлен
Перевод: Melind@ с 7 серии ФСГ "Альянс"
Оформление постера: Михаил Золотов
Работа со звуком: Екатерина Юрьева-Озвучивается при поддержке зрителей GREEN TEA -Неотключаемые субтитры: Без хардсаба
Качество видео: TVRip
Формат: AVI
Видео: XviD, 720*400(16:9), 1500 kbps, 29.970 fps
Аудио: MP3, 192 kbps, 2 ch, 48.0 KHz
Язык: Русский в составе контейнера
ОСТ к дораме Озорной поцелуй: Любовь в Токио
НОВОСТИ
13,01 Добавлена 13 серия.
16,01 Добавлена 14 серия.
22,01 Добавлена 15 серия.
22,01 Добавлена 16 серия.
-

Медиаинфо

General
Complete name : E:\[GREEN TEA] Озорной поцелуй.Любовь в Токио\[GREEN TEA] Озорной поцелуй- Любовь в Токио ep1.avi
Format : AVI
Format/Info : Audio Video Interleave
File size : 609 MiB
Duration : 50mn 1s
Overall bit rate : 1 703 Kbps
Writing application : VirtualDubMod 1.5.10.2 (build 2540/release)
Writing library : VirtualDubMod build 2540/release
Video
ID : 0
Format : MPEG-4 Visual
Format profile : Advanced Simple@L5
Format settings, BVOP : 1
Format settings, QPel : No
Format settings, GMC : No warppoints
Format settings, Matrix : Default (H.263)
Codec ID : XVID
Codec ID/Hint : XviD
Duration : 50mn 1s
Bit rate : 1 500 Kbps
Width : 720 pixels
Height : 400 pixels
Display aspect ratio : 16:9
Frame rate : 29.970 fps
Color space : YUV
Chroma subsampling : 4:2:0
Bit depth : 8 bits
Scan type : Progressive
Compression mode : Lossy
Bits/(Pixel*Frame) : 0.174
Stream size : 537 MiB (88%)
Writing library : XviD 58
Audio
ID : 1
Format : MPEG Audio
Format version : Version 1
Format profile : Layer 3
Mode : Joint stereo
Codec ID : 55
Codec ID/Hint : MP3
Duration : 50mn 1s
Bit rate mode : Constant
Bit rate : 192 Kbps
Channel(s) : 2 channels
Sampling rate : 48.0 KHz
Compression mode : Lossy
Stream size : 68.7 MiB (11%)
Alignment : Aligned on interleaves
Interleave, duration : 33 ms (1.00 video frame)
Interleave, preload duration : 504 ms

Скриншоты



Последний раз редактировалось: balic (2014-01-23 14:05), всего редактировалось 7 раз(а)
[Профиль] [ЛС]

balic ®

Стаж: 3 года 10 месяцев

Сообщений: 324

Пост 25-Дек-2013 15:57 (спустя 7 дней)

[Цитировать]

10 серия!
[Профиль] [ЛС]

j_777

Стаж: 3 года 9 месяцев

Сообщений: 302

Пост 26-Дек-2013 01:14 (спустя 9 часов)

[Цитировать]

Спасибо за вашу работу! )))
[Профиль] [ЛС]

dusy78

Стаж: 3 года 10 месяцев

Сообщений: 1005

Откуда: Россия

Пост 29-Дек-2013 08:34 (спустя 3 дня)

[Цитировать]

Добавлена 12 серия!
[Профиль] [ЛС]

balic ®

Стаж: 3 года 10 месяцев

Сообщений: 324

Пост 13-Янв-2014 10:59 (спустя 15 дней)

[Цитировать]

13 серия!
[Профиль] [ЛС]

j_777

Стаж: 3 года 9 месяцев

Сообщений: 302

Пост 13-Янв-2014 13:33 (спустя 2 часа 34 минуты)

[Цитировать]

Спасибо за вашу работу!!!
[Профиль] [ЛС]

balic ®

Стаж: 3 года 10 месяцев

Сообщений: 324

Пост 16-Янв-2014 08:37 (спустя 2 дня 19 часов)

[Цитировать]

14 серия!
[Профиль] [ЛС]

balic ®

Стаж: 3 года 10 месяцев

Сообщений: 324

Пост 22-Янв-2014 17:44 (спустя 6 дней)

[Цитировать]

15 серия!
[Профиль] [ЛС]

balic ®

Стаж: 3 года 10 месяцев

Сообщений: 324

Пост 23-Янв-2014 14:06 (спустя 20 часов)

[Цитировать]

16 серия!
[Профиль] [ЛС]

АлёнаВетерок

Стаж: 3 года 1 месяц

Сообщений: 5

Пост 23-Янв-2014 14:49 (спустя 42 минуты)

[Цитировать]

Спасибо Вам огромное за прекрасную качественную озвучку и за оперативность :))
[Профиль] [ЛС]

Inessa

Стаж: 3 года 9 месяцев

Сообщений: 40

Пост 25-Янв-2014 14:07 (спустя 1 день 23 часа)

[Цитировать]

Спасибо за вашу работу! )
[Профиль] [ЛС]

avion

Стаж: 2 года 10 месяцев

Сообщений: 14

Пост 06-Фев-2014 00:30 (спустя 11 дней)

[Цитировать]

Какая глупая девочка. Настолько, что это даже интересно.
[Профиль] [ЛС]

avion

Стаж: 2 года 10 месяцев

Сообщений: 14

Пост 06-Фев-2014 12:38 (спустя 12 часов)

[Цитировать]

Мики, через месяц, только семнадцать будет. Молодец, хорошо сыграла.
http://mikihonoka.com/profile/
[Профиль] [ЛС]

avion

Стаж: 2 года 10 месяцев

Сообщений: 14

Пост 08-Фев-2014 22:47 (спустя 2 дня 10 часов)

[Цитировать]

От них же на улицах народ шарахается и пальцем показывают. Съёмки на натуре скрытой камерой вели что ли? :) Ужас
[Профиль] [ЛС]

Нургул

Стаж: 2 года 6 месяцев

Сообщений: 1

Пост 04-Июн-2014 06:51 (спустя 3 месяца 23 дня)

[Цитировать]

спасибо вы лучшие
[Профиль] [ЛС]
Показать сообщения:    
Ответить на тему

Текущее время: Сегодня 10:29

Часовой пояс: GMT



Вы не можете начинать темы
Вы не можете отвечать на сообщения
Вы не можете редактировать свои сообщения
Вы не можете удалять свои сообщения
Вы не можете голосовать в опросах
Вы не можете прикреплять файлы к сообщениям
Вы не можете скачивать файлы