Жалобы на работу трекера ! прошу сюда :)

Шанс! / Chance! (Kobayashi Kazuhiro) [2/2] [Rus(int)] [Япония, 2009 год, Комедия, работа, TVRip] [RAW] VO (GREEN TEA)

Ответить на тему
 
Автор Сообщение

balic ®

Стаж: 3 года 10 месяцев

Сообщений: 324

Пост 23-Дек-2013 22:48

[Цитировать]

Шанс! / Chance!
Страна: Япония
Год выпуска: 2009
Жанр: Комедия, работа
Продолжительность: 2 ~ 48 минут
Режисер: Kobayashi Kazuhiro
В ролях:
Horikita Maki
Kuroki Meisa
Gekidan Hitori
Hamada Gaku
Okada Yoshinori
Hiraizumi Sei
СЭМПЛ http://multi-up.com/935276
Описание:
22-летняя девушка пытается отыскать работу. Наконец-то она находит таковую в туристической фирме. Деловая женщина в той же фирме имеет одинаковую с ней фамилию. Однажды, они случайно меняются телефонами и жизнь Маки начинает меняться. Это её шанс, чтобы добиться успеха.
Перевод : ФСГ "Альянс"
Озвучка: Одноголосая закадровая Екатерина Юрьева
Работа со звуком- Екатерина Юрьева
Неотключаемые субтитры: полухардсаб

Скриншоты

Медиаинфо

General
Полное имя : D:\[green-tea.tv] Шанс!\[green-tea.tv] Шанс ep1.avi
Формат : AVI
Формат/Информация : Audio Video Interleave
Размер файла : 668 MiB
Продолжительность : 48mn 41s
Общий поток : 1 917 Kbps
Программа кодирования : VirtualDubMod 1.5.10.2 (build 2540/release)
Библиотека кодирования : VirtualDubMod build 2540/release
Video
Идентификатор : 0
Формат : MPEG-4 Visual
Профиль формата : Advanced Simple@L5
Параметр BVOP формата : 2
Параметр QPel формата : No
Параметр GMC формата : No warppoints
Параметр матрицы формата : Default (H.263)
Идентификатор кодека : XVID
Идентификатор кодека/Подсказка : XviD
Продолжительность : 48mn 41s
Битрейт : 1 713 Kbps
Ширина : 704 pixels
Высота : 396 pixels
Соотношение сторон : 16:9
Частота кадров : 29.970 fps
Цветовое пространство : YUV
Субдискретизация насыщенности : 4:2:0
Битовая глубина : 8 bits
Тип развёртки : Progressive
Метод сжатия : Lossy
Бит/(Пиксели*Кадры) : 0.205
Размер потока : 597 MiB (89%)
Библиотека кодирования : XviD 1.2.1 (UTC 2008-12-04)
Audio
Идентификатор : 1
Формат : MPEG Audio
Версия формата : Version 1
Профиль формата : Layer 3
Режим : Joint stereo
Идентификатор кодека : 55
Идентификатор кодека/Подсказка : MP3
Продолжительность : 48mn 41s
Вид битрейта : Constant
Битрейт : 192 Kbps
Каналы : 2 channels
Частота : 48.0 KHz
Метод сжатия : Lossy
Размер потока : 66.9 MiB (10%)
Выравнивание : Aligned on interleaves
Продолжительность промежутка : 33 ms (1.00 video frame)
Время предзагрузки промежутка : 504 ms
Качество видео: TVRip
Формат: AVI
Видео: DivX 5 704x396 29.97fps 1 718 Kbps
Язык: Японский
Аудио: MP3 48000Hz stereo 192kbps
[Профиль] [ЛС]

balic ®

Стаж: 3 года 10 месяцев

Сообщений: 324

Пост 26-Дек-2013 15:33 (спустя 2 дня 16 часов)

[Цитировать]

2 серия!
[Профиль] [ЛС]

Inessa

Стаж: 3 года 9 месяцев

Сообщений: 40

Пост 02-Мар-2014 06:29 (спустя 2 месяца 6 дней)

[Цитировать]

Спасибо!
[Профиль] [ЛС]

Tainted-love

Стаж: 2 года 11 месяцев

Сообщений: 1180

Пост 03-Май-2014 15:19 (спустя 2 месяца 1 день)

[Цитировать]

Озвучка прекрасная, спасибо большое. Было очень весело смотреть. Удачки в дальнейших проектах!!!!!!!!!!!!"
[Профиль] [ЛС]

AlexStarRu

Стаж: 3 года 9 месяцев

Сообщений: 148

Пост 03-Сен-2014 13:16 (спустя 3 месяца 30 дней)

[Цитировать]

Кто-то ещё раздаёт ?
[Профиль] [ЛС]

AlexStarRu

Стаж: 3 года 9 месяцев

Сообщений: 148

Пост 07-Сен-2014 13:10 (спустя 3 дня)

[Цитировать]

Классный позитивный фильм. Совсем беспроблемный, но всё-таки с некоторой интригой и не совсем предсказуемыми поворотами сюжета.
Очень рекомендуется для поднятия настроения.
Озвучка на 5+.
[Профиль] [ЛС]

balic ®

Стаж: 3 года 10 месяцев

Сообщений: 324

Пост 07-Сен-2014 13:11 (спустя 1 минута)

[Цитировать]

AlexStarRu, спасибо
[Профиль] [ЛС]
Показать сообщения:    
Ответить на тему

Текущее время: Сегодня 03:53

Часовой пояс: GMT



Вы не можете начинать темы
Вы не можете отвечать на сообщения
Вы не можете редактировать свои сообщения
Вы не можете удалять свои сообщения
Вы не можете голосовать в опросах
Вы не можете прикреплять файлы к сообщениям
Вы не можете скачивать файлы