Жалобы на работу трекера ! прошу сюда :)

Головоломка / Puzzle [4/4] [Япония, 2007 г., триллер, неизвестность, TVRip](Takano Wataru) RAW [JAP+SUB]

Ответить на тему
 
Автор Сообщение

balic ®

Стаж: 3 года 10 месяцев

Сообщений: 324

Пост 14-Янв-2014 17:21

[Цитировать]

Головоломка / Puzzle/ パズル Год выпуска: 2007
Страна: Япония
Жанр: Триллер, неизвестность
Продолжительность: 4 серии ~ 24 мин.
Режиссёр: Takano Wataru
Перевод: Субтитры (отключаемые, присутствует китайский хардсаб)
В ролях: Yanagi Kotaro, Nakamura Yuichi, Takahashi Marino, Mori Ren, Yamamoto Yusuke, Katsura Asami, Nakagawa Shingo, Nakamura Masaya, Shida Nanako, Tanaka Takuma, Kataoka Asuka, Amada Reki, Konno Masato, Narita Shoji
Описание: Группа вооружённых преступников захватывает элитную школу. Они заставляют класс самых лучших учеников искать 2000 кусочков головоломки, которые спрятаны по всей школе. Если те не смогут полностью собрать головоломку за 24 часа, преступники убьют заложников.
Почему им дали именно такое задание и что скрывает за собой головоломка, ученики смогут узнать, только собрав все кусочки воедино.
Перевод: Lunaloca
Релиз: группа "GREEN TEA"
Оформление постера: Елена Горборукова
Работа со звуком: Екатерина Юрьева

Качество: TVRip
Формат: AVI
Видео кодек: DivX
Аудио кодек: MPEG Audio
Видео: DivX 5 856x480 29.00fps 2050Kbps
Аудио: MP3 44100Hz 192Kbps

Скриншоты

Медиаинфо

General
Complete name : D:\[green-tea.tv] Головоломка\[green-tea.tv] Головоломка эпизод 1.avi
Format : AVI
Format/Info : Audio Video Interleave
File size : 386 MiB
Duration : 23mn 58s
Overall bit rate : 2 252 Kbps
Writing application : VirtualDubMod 1.5.10.2 (build 2540/release)
Writing library : VirtualDubMod build 2540/release
Video
ID : 0
Format : MPEG-4 Visual
Format profile : Simple@L1
Format settings, BVOP : No
Format settings, QPel : No
Format settings, GMC : No warppoints
Format settings, Matrix : Default (H.263)
Codec ID : FMP4
Duration : 23mn 58s
Bit rate : 2 048 Kbps
Width : 864 pixels
Height : 480 pixels
Display aspect ratio : 16:9
Frame rate : 29.970 fps
Color space : YUV
Chroma subsampling : 4:2:0
Bit depth : 8 bits
Scan type : Progressive
Compression mode : Lossy
Bits/(Pixel*Frame) : 0.165
Stream size : 351 MiB (91%)
Writing library : Lavc54.92.100
Audio
ID : 1
Format : MPEG Audio
Format version : Version 1
Format profile : Layer 3
Mode : Joint stereo
Codec ID : 55
Codec ID/Hint : MP3
Duration : 23mn 56s
Bit rate mode : Constant
Bit rate : 192 Kbps
Channel(s) : 2 channels
Sampling rate : 44.1 KHz
Compression mode : Lossy
Stream size : 32.9 MiB (9%)
Alignment : Split accross interleaves
Interleave, duration : 33 ms (1.00 video frame)
Interleave, preload duration : 500 ms



Последний раз редактировалось: balic (2014-01-21 17:27), всего редактировалось 8 раз(а)
[Профиль] [ЛС]

BetaKsi

Стаж: 3 года 10 месяцев

Сообщений: 5

Откуда: Астрахань

Пост 15-Янв-2014 19:42 (спустя 1 день 2 часа)

[Цитировать]

balic,
Простите, но у вас постер (главная афиша) другой дорамы. Она тоже называлась "Головоломка", но вышла через год и в ней было, кажется 10 серий.
[Профиль] [ЛС]

balic ®

Стаж: 3 года 10 месяцев

Сообщений: 324

Пост 16-Янв-2014 06:14 (спустя 10 часов)

[Цитировать]

BetaKsi, уже исправили. Спасибо.
[Профиль] [ЛС]

balic ®

Стаж: 3 года 10 месяцев

Сообщений: 324

Пост 19-Янв-2014 09:49 (спустя 3 дня)

[Цитировать]

Добавлена 3 серия! 2 серия перезалита, прошу обновить торрент!
[Профиль] [ЛС]

balic ®

Стаж: 3 года 10 месяцев

Сообщений: 324

Пост 21-Янв-2014 17:27 (спустя 2 дня 7 часов)

[Цитировать]

4 серия!
[Профиль] [ЛС]

j_777

Стаж: 3 года 9 месяцев

Сообщений: 302

Пост 22-Янв-2014 04:31 (спустя 11 часов)

[Цитировать]

Спасибо !!!
[Профиль] [ЛС]
Показать сообщения:    
Ответить на тему

Текущее время: Сегодня 03:48

Часовой пояс: GMT



Вы не можете начинать темы
Вы не можете отвечать на сообщения
Вы не можете редактировать свои сообщения
Вы не можете удалять свои сообщения
Вы не можете голосовать в опросах
Вы не можете прикреплять файлы к сообщениям
Вы не можете скачивать файлы