Жалобы на работу трекера ! прошу сюда :)

Часы моей жизни: Время, когда я был / Boku no Ita Jikan / Time I was in / The Hours of My Life [11/11] [2014, драма, TVRip] [RAW] [480p]

Ответить на тему
 
Автор Сообщение

balic ®

Стаж: 3 года 10 месяцев

Сообщений: 324

Пост 16-Фев-2014 19:27

[Цитировать]

Часы моей жизни: Время, когда я был
Boku no Ita Jikan / The Hours of My Life

Страна: Япония
Год выпуска: 2014
Жанр: драма
Продолжительность: 1 серия 57 минут 10 серий по 40 минут
Перевод: Одноголосый закадровый Екатерина Юрьева
СЭМПЛ http://multi-up.com/951815
Режиссер: Hayama Hiroki
В ролях: Asada Miyoko,
Harada Mieko,
Tabe Mikako,
Saito Takumi,
Nomura Shuhei,
Yamamoto Mizuki,
Miura Haruma-Описание: Дорама расскажет нам о Савада Такуто, который уже на 4 курсе университета, как и все студенты заканчивающие ВУЗ, Такуто ищет подходящую для него работу. Ранее годами, родители возлагали на него большие надежды, но Такуто их не оправдал, и теперь материнское внимание, полностью на младшем брате Савады. Пока мать лелеет свои надежды о будущем младшего сына, старший сын обнаруживает в себе странный недуг...-Доп.информация:
Перевод: Эльза Нордж
Неотключаемые субтитры: Без хардсаба
Релиз: группа GREEN TEA
Озвучивание и работа над звуком: Екатерина Юрьева
Оформление постера: Елена Горборукова-Качество видео: TVRip
Разрешение: 480p
Формат: MKV
Видео: H264/AVC, 840*480, 960 kbps, 29.97 fps
Аудио: MP3, 128 kbps, 48 kHz, стерео bp bp bp bp bp bp bp bp bp bpРаздача на 720 http://tracker.green-tea.tv/viewtopic.php?t=583

Медиаинфо

General
Unique ID : 210005622376084418544760399847621590684 (0x9DFD9C95E7D5531595605F623E7EFE9C)
Complete name : D:\[green-tea.tv] Часы моей жизни. Время, когда я был\[green-tea.tv] Часы моей жизни. Время, когда я был серия 1.mkv
Format : Matroska
Format version : Version 4 / Version 2
File size : 449 MiB
Duration : 58mn 19s
Overall bit rate : 1 076 Kbps
Encoded date : UTC 2014-02-16 17:47:02
Writing application : mkvmerge v6.6.0 ('The Edge Of The In Between') built on Dec 1 2013 17:55:00
Writing library : libebml v1.3.0 + libmatroska v1.4.1
Video
ID : 1
Format : AVC
Format/Info : Advanced Video Codec
Format profile : Main@L3.1
Format settings, CABAC : Yes
Format settings, ReFrames : 1 frame
Codec ID : V_MPEG4/ISO/AVC
Duration : 58mn 19s
Bit rate : 960 Kbps
Width : 848 pixels
Height : 480 pixels
Display aspect ratio : 16:9
Frame rate mode : Constant
Frame rate : 29.970 fps
Color space : YUV
Chroma subsampling : 4:2:0
Bit depth : 8 bits
Scan type : Progressive
Bits/(Pixel*Frame) : 0.079
Stream size : 386 MiB (86%)
Writing library : x264 core 129
Encoding settings : cabac=1 / ref=1 / deblock=1:0:0 / analyse=0x1:0x131 / me=dia / subme=2 / psy=1 / psy_rd=1.00:0.00 / mixed_ref=0 / me_range=16 / chroma_me=1 / trellis=0 / 8x8dct=0 / cqm=0 / deadzone=21,11 / fast_pskip=1 / chroma_qp_offset=0 / threads=4 / lookahead_threads=1 / sliced_threads=0 / nr=0 / decimate=1 / interlaced=0 / bluray_compat=0 / constrained_intra=0 / bframes=0 / weightp=2 / keyint=250 / keyint_min=25 / scenecut=40 / intra_refresh=0 / rc_lookahead=40 / rc=abr / mbtree=1 / bitrate=960 / ratetol=1.0 / qcomp=0.60 / qpmin=10 / qpmax=51 / qpstep=4 / ip_ratio=1.41 / aq=1:1.00
Default : Yes
Forced : No
Audio
ID : 2
Format : MPEG Audio
Format version : Version 1
Format profile : Layer 3
Mode : Joint stereo
Mode extension : MS Stereo
Codec ID : A_MPEG/L3
Codec ID/Hint : MP3
Duration : 58mn 19s
Bit rate mode : Constant
Bit rate : 128 Kbps
Channel(s) : 2 channels
Sampling rate : 48.0 KHz
Compression mode : Lossy
Stream size : 53.4 MiB (12%)
Default : Yes
Forced : No

Скриншоты



Последний раз редактировалось: balic (2014-05-06 21:29), всего редактировалось 11 раз(а)
[Профиль] [ЛС]

rodqer

Стаж: 3 года 10 месяцев

Сообщений: 417

Откуда: кемерово

Пост 20-Фев-2014 12:26 (спустя 3 дня)

[Цитировать]

спасибо
[Профиль] [ЛС]

balic ®

Стаж: 3 года 10 месяцев

Сообщений: 324

Пост 10-Мар-2014 10:57 (спустя 17 дней)

[Цитировать]

3 серия!
[Профиль] [ЛС]

rodqer

Стаж: 3 года 10 месяцев

Сообщений: 417

Откуда: кемерово

Пост 14-Мар-2014 13:44 (спустя 4 дня)

[Цитировать]

спасибки))))))))))))))))))
[Профиль] [ЛС]

balic ®

Стаж: 3 года 10 месяцев

Сообщений: 324

Пост 16-Апр-2014 16:54 (спустя 1 месяц 2 дня)

[Цитировать]

6 серия!
[Профиль] [ЛС]

rodqer

Стаж: 3 года 10 месяцев

Сообщений: 417

Откуда: кемерово

Пост 19-Апр-2014 12:49 (спустя 2 дня 19 часов)

[Цитировать]

)))))))))))))
[Профиль] [ЛС]

balic ®

Стаж: 3 года 10 месяцев

Сообщений: 324

Пост 19-Апр-2014 12:52 (спустя 3 минуты)

[Цитировать]

7 серия!
[Профиль] [ЛС]

balic ®

Стаж: 3 года 10 месяцев

Сообщений: 324

Пост 21-Апр-2014 23:02 (спустя 2 дня 10 часов)

[Цитировать]

8 серия!
[Профиль] [ЛС]

balic ®

Стаж: 3 года 10 месяцев

Сообщений: 324

Пост 23-Апр-2014 18:26 (спустя 1 день 19 часов)

[Цитировать]

9 серия!
[Профиль] [ЛС]

rodqer

Стаж: 3 года 10 месяцев

Сообщений: 417

Откуда: кемерово

Пост 08-Май-2014 15:13 (спустя 14 дней)

[Цитировать]

спасибо и с окончанием)))
[Профиль] [ЛС]

катерина

Стаж: 3 года 2 месяца

Сообщений: 12

Пост 10-Май-2014 16:59 (спустя 2 дня 1 час)

[Цитировать]

Спасибо огромное!!!
[Профиль] [ЛС]

mwvane

Стаж: 2 года 6 месяцев

Сообщений: 1

Пост 26-Май-2014 20:58 (спустя 16 дней)

[Цитировать]

Часы моей жизни: Время, когда я был / Boku no Ita Jikan / Time I was in / The Hours of My Life [11/11] [2014, драма, TVRip] [RAW] [480p]
Спасибо ,
[Профиль] [ЛС]
Показать сообщения:    
Ответить на тему

Текущее время: Сегодня 04:08

Часовой пояс: GMT



Вы не можете начинать темы
Вы не можете отвечать на сообщения
Вы не можете редактировать свои сообщения
Вы не можете удалять свои сообщения
Вы не можете голосовать в опросах
Вы не можете прикреплять файлы к сообщениям
Вы не можете скачивать файлы