Жалобы на работу трекера ! прошу сюда :)

Часы моей жизни: Время, когда я был / Boku no Ita Jikan / Time I was in / The Hours of My Life [11/11][2014, драма, HDRip] [RAW] [720p] VO GREEN TEA

Страницы :  1, 2  След.

Ответить на тему
 
Автор Сообщение

Klёпa ®

Стаж: 3 года 2 месяца

Сообщений: 906

Пост 16-Фев-2014 20:45

[Цитировать]

Часы моей жизни: Время, когда я был
Boku no Ita Jikan / The Hours of My Life

Страна: Япония
Год выпуска: 2014
Жанр: драма
Продолжительность: 11 серий по 45 минут (1-я серия - 57 мин)
Серий: 1-11 (11)
-Озвучивание: одноголосое закадровое - Екатерина Юрьева
Сэмпл: http://yadi.sk/d/hKRKmL5kJGbAZ-
Режиссер: Hayama Hiroki
В ролях:
Миура Харума (Miura Haruma / 三浦春馬) - Савада Такуто
Табэ Микако (Tabe Mikako / 多部未華子) - Хонго Мегуми
Асада Миёко (Asada Miyoko / 浅田美代子) - Хонго Шоко
Харада Миеко (Harada Mieko / 原田美枝子) - Савада Савако
Мантаро Коичи (Mantaro Koichi / 小市慢太郎) - Савада Акио
Номура Шухей (Nomura Shuhei / 野村周平) - Савада Рикуто
Сайто Такуми (Saito Takumi / 斎藤工) - Мукаи Шигеюки
Шунске Казама (Shunsuke Kazama / 風間俊介) - Мизушима Мамору
Ямамото Мизуки (Yamamoto Mizuki / 山本美月) - Мираяма Хина
Митсуру Фукикоши (Mitsuru Fukikoshi / 吹越満) - Танимото Казуши
Описание: Дорама расскажет нам о Савада Такуто, который уже на 4 курсе университета, как и все студенты заканчивающие ВУЗ, ищет подходящую для него работу. Ранее годами родители возлагали на него большие надежды, но Такуто их не оправдал и теперь материнское внимание полностью сосредоточено на младшем брате Савады. Пока мать лелеет свои надежды о будущем младшего сына, старший сын обнаруживает в себе странный недуг...
Доп.информация:
Релиз группы GREEN TEA
Перевод: Эльза Нордж (1 серия) и стажёры группы "GREEN TEA" (2-11 серии):
▸ 2 серия - Айгерим Чудесная (стажёр)
▸ 3, 5 и 10 серии - Анна Сумцова (стажёр)
▸ 4 и 7 серии - Анастасия Малая (стажёр)
▸ 6 и 11 серии - Мария Лукина (стажёр)
▸ 8 серия - Мария Беликова (стажёр)
▸ 9 серия - Кэти Белл (стажёр)
Редакция: Эльза Нордж
Озвучивание и работа над звуком: Екатерина Юрьева
Оформление постера: Елена Горборукова
Качество видео: HDTVRip-AVC
Формат: AVI
Язык: Русский (закадровый)
Cубтитры: без хардсаба
Видео: H264 (AVC), 1280x720, 29.97 fps, ~3100 Kbps
Аудио: MP3, 128 kbps, 44.1 KHz, stereo
Альтернативная раздача: 800х450, mkv07.05.2014 - добавлены 10-11 серия.

Медиаинфо

Код:
General
Complete name                            : [GREEN TEA] Boku.no.Ita.Jikan_E01_HD.avi
Format                                   : AVI
Format/Info                              : Audio Video Interleave
File size                                : 1.61 GiB
Duration                                 : 57mn 41s
Overall bit rate                         : 3 985 Kbps
Video
ID                                       : 0
Format                                   : AVC
Format/Info                              : Advanced Video Codec
Format profile                           : High@L5.1
Format settings, CABAC                   : Yes
Format settings, ReFrames                : 4 frames
Codec ID                                 : h264
Duration                                 : 57mn 41s
Bit rate                                 : 3 846 Kbps
Nominal bit rate                         : 3 000 Kbps
Width                                    : 1 280 pixels
Height                                   : 720 pixels
Display aspect ratio                     : 16:9
Frame rate                               : 29.970 fps
Color space                              : YUV
Chroma subsampling                       : 4:2:0
Bit depth                                : 8 bits
Scan type                                : Progressive
Bits/(Pixel*Frame)                       : 0.139
Stream size                              : 1.55 GiB (96%)
Writing library                          : x264 core 130 r2273 b3065e6
Audio
ID                                       : 1
Format                                   : MPEG Audio
Format version                           : Version 1
Format profile                           : Layer 3
Mode                                     : Joint stereo
Mode extension                           : MS Stereo
Codec ID                                 : 55
Codec ID/Hint                            : MP3
Duration                                 : 57mn 41s
Bit rate mode                            : Constant
Bit rate                                 : 128 Kbps
Channel(s)                               : 2 channels
Sampling rate                            : 48.0 KHz
Compression mode                         : Lossy
Stream size                              : 52.8 MiB (3%)
Alignment                                : Aligned on interleaves
Interleave, duration                     : 33 ms (1.00 video frame)
Interleave, preload duration             : 504 ms

Скриншоты




Последний раз редактировалось: Klёпa (2014-05-06 21:40), всего редактировалось 23 раз(а)
[Профиль] [ЛС]

victoria

Стаж: 3 года 1 месяц

Сообщений: 12

Пост 18-Фев-2014 19:46 (спустя 1 день 23 часа)

[Цитировать]

Вау, спасибо Вам большое!!! Я так хотела посмотреть этот сериал, а вы его уже и озвучиваете. Как же я рада. Вы самые лучшие, люблю Вас!!!!!!
[Профиль] [ЛС]

Leisi

Стаж: 3 года

Сообщений: 8

Пост 20-Фев-2014 13:48 (спустя 1 день 18 часов)

[Цитировать]

Thanks!!!
[Профиль] [ЛС]

Klёпa ®

Стаж: 3 года 2 месяца

Сообщений: 906

Пост 02-Мар-2014 09:07 (спустя 9 дней)

[Цитировать]

Добавлена 2 серия! Приятного просмотра br
[Профиль] [ЛС]

Klёпa ®

Стаж: 3 года 2 месяца

Сообщений: 906

Пост 10-Мар-2014 11:05 (спустя 8 дней)

[Цитировать]

Добавлена 3 серия! Приятного просмотра be
[Профиль] [ЛС]

Klёпa ®

Стаж: 3 года 2 месяца

Сообщений: 906

Пост 13-Мар-2014 22:28 (спустя 3 дня)

[Цитировать]

Добавлена 4 серия!
[Профиль] [ЛС]

Klёпa ®

Стаж: 3 года 2 месяца

Сообщений: 906

Пост 15-Апр-2014 20:05 (спустя 1 месяц 1 день)

[Цитировать]

Добавлена 5 серия!
[Профиль] [ЛС]

Klёпa ®

Стаж: 3 года 2 месяца

Сообщений: 906

Пост 16-Апр-2014 15:59 (спустя 19 часов)

[Цитировать]

Добавлена 6 серия!
[Профиль] [ЛС]

Klёпa ®

Стаж: 3 года 2 месяца

Сообщений: 906

Пост 19-Апр-2014 12:54 (спустя 2 дня 20 часов)

[Цитировать]

Добавлена 7 серия!
[Профиль] [ЛС]

Klёпa ®

Стаж: 3 года 2 месяца

Сообщений: 906

Пост 21-Апр-2014 22:01 (спустя 2 дня 9 часов)

[Цитировать]

Добавлена 8 серия!
[Профиль] [ЛС]

Klёпa ®

Стаж: 3 года 2 месяца

Сообщений: 906

Пост 23-Апр-2014 18:39 (спустя 1 день 20 часов)

[Цитировать]

Добавлена 9 серия!
[Профиль] [ЛС]

Tainted-love

Стаж: 2 года 11 месяцев

Сообщений: 1180

Пост 05-Май-2014 09:50 (спустя 11 дней)

[Цитировать]

Спасибо за озвучку большое!!!!!!!!!!!!!!!! Надеюсь на быстрое завершение проекта.
[Профиль] [ЛС]

Klёпa ®

Стаж: 3 года 2 месяца

Сообщений: 906

Пост 06-Май-2014 21:47 (спустя 1 день 11 часов)

[Цитировать]

Добавлены заключительные 10-11 серии!
Проект ЗАВЕРШЁН!! Приятного просмотра! bo
[Профиль] [ЛС]

ZOU

Стаж: 2 года 10 месяцев

Сообщений: 1

Пост 09-Май-2014 06:35 (спустя 2 дня 8 часов)

[Цитировать]

Огромное спасибо за работу. До сих пор под впечатлением от сериала.
[Профиль] [ЛС]

Bayan-Sulu

Стаж: 3 года

Сообщений: 5

Пост 30-Май-2014 14:07 (спустя 21 день)

[Цитировать]

Зимой, пока смотрела этот сериал, все ждала когда же у вас появится! и вот! спасибо!!!
пожалуйста, побольше японских сериалов.
[Профиль] [ЛС]
Показать сообщения:    
Ответить на тему

Текущее время: Сегодня 20:08

Часовой пояс: GMT



Вы не можете начинать темы
Вы не можете отвечать на сообщения
Вы не можете редактировать свои сообщения
Вы не можете удалять свои сообщения
Вы не можете голосовать в опросах
Вы не можете прикреплять файлы к сообщениям
Вы не можете скачивать файлы