Жалобы на работу трекера ! прошу сюда :)

Шарк / Shark [12/12] (Kubota Takashi) [2014 г., музыкальный, драма, HDTVRip] [RAW] [720p] DVO GREEN TEA

Страницы :  1, 2  След.

Ответить на тему
 
Автор Сообщение

Dirbs ®

Стаж: 3 года 1 месяц

Сообщений: 88

Пост 27-Мар-2014 16:46

[Цитировать]

ШАРК / SHARK Год выпуска: 2014
Страна: Япония
Жанр: Музыкальный, драма
Продолжительность: 12 серий по 25 мин.-Перевод: Двухголосый (закадровый): Екатерина Юрьева и Макс Коллапс
СЭМПЛ http://multi-up.com/962452-Режиссер: Kubota Takashi
В ролях:
Hirano Sho as Kurata Mizuki
Yamashita Rio as Komatsu Ichika
Hamada Takahiro as Hagihara Kai
Matsumura Hokuto as Ryuzaki Ayumu
Fujii Ryusei as Kitagawa Kazuki
Iwamoto Hikaru as Satomi Kenzo
Kamiyama Tomohiro as Adachi Teppei
Kawaei Rina (川栄李奈) as Konno Kaede
Mano Erina as Okawa Miku
Ujiki Tsuyoshi
Okada Kohki as Yoshimura Takahiro-Описание: "Акула" - музыкальная группа из 5-ти человек мечтает своей музыкой изменить весь мир к лучшему. Они упорно практикуются и готовятся к дебюту. Маленькими шажками они протаптывают себе путь на музыкальную вершину. Несмотря на небольшие преграды и недоверие окружающих ребята упорно продвигаются к намеченной цели. И вот уже дебют группы не за горами, но неожиданно в группе происходит трагедия - в результате несчастного случая умирает главный вокалист группы…-Доп. информация:
Постер: Елена Горборукова
Перевод:ФСГ "Big Boss"
Редакция под озвучку: Марина Торлин
Тайминг: Разифат Асланова
Работа со звуком: Андрей Буреев -Качество: HDTVRip
Формат: AVI
Видео кодек: H.264
Аудио кодек: MP3
Видео: 1280х720, 2900 Кбит/c, 29.970 fps
Аудио: 192 Кбит/c, 48.0 KHz, 2 канала
!!! Альтернативная раздача: 360p (AVI, XviD)05.06.2014 - добавлена 12 серия.

Скриншоты

Медиаинфо

General
Complete name : [GREEN TEA] Shark (720p)_E01.mkv
Format : Matroska
Format version : Version 2
File size : 522 MiB
Duration : 23mn 11s
Overall bit rate mode : Variable
Overall bit rate : 3 146 Kbps
Encoded date : UTC 2014-03-27 22:37:12
Writing application : mkvmerge v6.7.0 ('Back to the Ground') 64bit built on Jan 8 2014 15:10:52
Writing library : libebml v1.3.0 + libmatroska v1.4.1
Video
ID : 1
Format : AVC
Format/Info : Advanced Video Codec
Format profile : High@L4.1
Format settings, CABAC : Yes
Format settings, ReFrames : 9 frames
Codec ID : V_MPEG4/ISO/AVC
Duration : 23mn 11s
Bit rate mode : Variable
Bit rate : 2 750 Kbps
Maximum bit rate : 40.0 Mbps
Width : 1 280 pixels
Height : 720 pixels
Display aspect ratio : 16:9
Frame rate mode : Constant
Frame rate : 29.970 fps
Color space : YUV
Chroma subsampling : 4:2:0
Bit depth : 8 bits
Scan type : Progressive
Bits/(Pixel*Frame) : 0.100
Stream size : 479 MiB (92%)
Title : Акула / Shark (2014) 720p
Writing library : x264 core 138 r2358 9e941d1
Encoding settings : cabac=1 / ref=9 / deblock=1:-2:-2 / analyse=0x3:0x133 / me=umh / subme=10 / psy=1 / psy_rd=1.00:0.15 / mixed_ref=1 / me_range=48 / chroma_me=1 / trellis=2 / 8x8dct=1 / cqm=0 / deadzone=21,11 / fast_pskip=0 / chroma_qp_offset=-3 / threads=12 / lookahead_threads=2 / sliced_threads=0 / nr=0 / decimate=1 / interlaced=0 / bluray_compat=0 / constrained_intra=0 / bframes=8 / b_pyramid=2 / b_adapt=2 / b_bias=0 / direct=3 / weightb=1 / open_gop=0 / weightp=2 / keyint=300 / keyint_min=29 / scenecut=40 / intra_refresh=0 / rc_lookahead=60 / rc=crf / mbtree=1 / crf=18.0 / qcomp=0.60 / qpmin=0 / qpmax=69 / qpstep=4 / ip_ratio=1.40 / aq=1:1.00
Language : Japanese
Default : Yes
Forced : No
Audio
ID : 2
Format : MPEG Audio
Format version : Version 1
Format profile : Layer 3
Mode : Joint stereo
Codec ID : A_MPEG/L3
Codec ID/Hint : MP3
Duration : 22mn 59s
Bit rate mode : Constant
Bit rate : 192 Kbps
Channel(s) : 2 channels
Sampling rate : 48.0 KHz
Compression mode : Lossy
Stream size : 31.6 MiB (6%)
Default : Yes
Forced : No

_________________
Я та-а-к быстро вспомнил о чем забыл, что сразу забыл о чем вспомнил ^_^


Последний раз редактировалось: Dirbs (2014-03-28 08:48), всего редактировалось 3 раз(а)
[Профиль] [ЛС]

igstar74

Стаж: 3 года

Сообщений: 1

Пост 27-Мар-2014 17:15 (спустя 29 минут)

[Цитировать]

Акула (мини-сериал)
Shark Япония
[Профиль] [ЛС]

LifesGood

Стаж: 3 года

Сообщений: 25

Пост 27-Мар-2014 17:26 (спустя 10 минут)

[Цитировать]

Ага, я вот тоже смотрю, ошибка 100%. Актеры японцы, режиссер аналогично, показ на Nippon TV, а страна почему-то Южная Корея и раздел непра-а-авельный... :)
[Профиль] [ЛС]

elzanorge

Стаж: 3 года 10 месяцев

Сообщений: 22

Пост 27-Мар-2014 19:31 (спустя 2 часа 5 минут)

[Цитировать]

Да-да. Всё исправим.
[Профиль] [ЛС]

Klёпa

Стаж: 3 года 2 месяца

Сообщений: 906

Пост 07-Апр-2014 17:55 (спустя 10 дней)

[Цитировать]

Добавлена 2 серия!!
[Профиль] [ЛС]

Klёпa

Стаж: 3 года 2 месяца

Сообщений: 906

Пост 09-Апр-2014 20:59 (спустя 2 дня 3 часа)

[Цитировать]

Добавлена 3 серия!!
[Профиль] [ЛС]

Klёпa

Стаж: 3 года 2 месяца

Сообщений: 906

Пост 12-Апр-2014 15:21 (спустя 2 дня 18 часов)

[Цитировать]

Добавлена 4 серия!!
[Профиль] [ЛС]

Klёпa

Стаж: 3 года 2 месяца

Сообщений: 906

Пост 19-Апр-2014 14:09 (спустя 6 дней)

[Цитировать]

Добавлена 5 серия!!
[Профиль] [ЛС]

Klёпa

Стаж: 3 года 2 месяца

Сообщений: 906

Пост 28-Апр-2014 19:20 (спустя 9 дней)

[Цитировать]

Добавлена 6 серия!!
[Профиль] [ЛС]

evetik

Стаж: 3 года

Сообщений: 18

Пост 30-Апр-2014 17:34 (спустя 1 день 22 часа)

[Цитировать]

Спасибо за раздачу! Очень хочется ост))
[Профиль] [ЛС]

Klёпa

Стаж: 3 года 2 месяца

Сообщений: 906

Пост 09-Май-2014 16:32 (спустя 8 дней)

[Цитировать]

Добавлена 7 серия!!
evetik, возможно ОСТ выложим позже в соответствующем разделе))
[Профиль] [ЛС]

evetik

Стаж: 3 года

Сообщений: 18

Пост 10-Май-2014 16:54 (спустя 1 день)

[Цитировать]

Пожалуйста, выложите)) У них прикольные песни)))
[Профиль] [ЛС]

Klёпa

Стаж: 3 года 2 месяца

Сообщений: 906

Пост 14-Май-2014 19:38 (спустя 4 дня)

[Цитировать]

Добавлена 8 серия!!
[Профиль] [ЛС]

Klёпa

Стаж: 3 года 2 месяца

Сообщений: 906

Пост 26-Май-2014 20:59 (спустя 12 дней)

[Цитировать]

Добавлена 9 серия!!
[Профиль] [ЛС]

кракин

Стаж: 2 года 8 месяцев

Сообщений: 11

Пост 27-Май-2014 14:33 (спустя 17 часов)

[Цитировать]

Добавлена 9 серия!!
И где?
[Профиль] [ЛС]
Показать сообщения:    
Ответить на тему

Текущее время: Сегодня 10:28

Часовой пояс: GMT



Вы не можете начинать темы
Вы не можете отвечать на сообщения
Вы не можете редактировать свои сообщения
Вы не можете удалять свои сообщения
Вы не можете голосовать в опросах
Вы не можете прикреплять файлы к сообщениям
Вы не можете скачивать файлы