Жалобы на работу трекера ! прошу сюда :)

Шарк / Shark [12/12] (Kubota Takashi) [2014 г., музыкальный, драма, DTVRip] [RAW] [360p] DVO GREEN TEA

Страницы :  1, 2  След.

Ответить на тему
 
Автор Сообщение

Klёпa ®

Стаж: 3 года 2 месяца

Сообщений: 906

Пост 28-Мар-2014 00:54

[Цитировать]

ШАРК / SHARK Год выпуска: 2014
Страна: Япония
Жанр: Музыкальный, драма
Продолжительность: 12 серий по 25 мин.-Перевод: Двухголосый (закадровый): Екатерина Юрьева и Макс Коллапс
Сэмпл: http://yadi.sk/d/Wpj9FtrDLLfHS-Режиссёр: Кубота Такаши (Kubota Takashi / 窪田崇)
В ролях:
Хирано Шо (Hirano Sho / 平野紫耀) - Курата Мизуки
Ямашита Рио (Yamashita Rio / 山下リオ) - Комацу Ичика
Хамада Такахиро (Hamada Takahiro / 濱田崇裕) - Хагихара Кай
Мацумура Хокуто (Matsumura Hokuto / 松村北斗) - Рюзаки Аюми
Фуджий Рюсей (Fujii Ryusei / 藤井流星) - Китагава Казуки
Ивамото Хикару (Iwamoto Hikaru / 岩本照) - Сатоми Кензо
Камияма Томохиро (Kamiyama Tomohiro / 神山智洋) - Адачи Теппей
Каваэи Рина (Kawaei Rina / 川栄李奈) - Конно Каэде
Мано Эрина (Mano Erina / 真野恵里菜) - Окава Мику
Цуёши Уджики (Ujiki Tsuyoshi / うじきつよし) - владелец магазина гитар
Окада Кохки (Okada Kohki / 岡田浩暉) - Йошимура Такахиро
и др.-Описание: "Шарк" - музыкальная группа из 5-ти человек, мечтающих своей музыкой изменить мир к лучшему. Они упорно практикуются и готовятся к дебюту. Маленькими шажками они протаптывают себе путь на музыкальную вершину. Несмотря на небольшие преграды и недоверие окружающих, ребята упорно продвигаются к намеченной цели. И вот, когда дебют уже не за горами, в группе неожиданно происходит трагедия: в результате несчастного случая погибает главный вокалист группы…-Доп. информация:
Релиз группы "GREEN TEA"
Перевод: фансаб-группа "BiG BOSS"
Редакция под озвучку: Марина Торлин
Тайминг: Разифат Асланова
Работа со звуком: Андрей Буреев
Оформление постера: Елена Горборукова-Качество: DTVRip
Формат: AVI
Видео кодек: XviD
Аудио кодек: MP3
Видео: 624x352, ~1300 Кбит/с, 29.97 fps
Аудио: 48.0 КГц, 192 Кбит/с, 2 канала
!!! Альтернативная раздача: 720p (MKV, H264)05.06.2014 - добавлена 12 серия.

MediaInfo

Код:
General
Complete name                            : [GREEN TEA] Shark_E01.avi
Format                                   : AVI
Format/Info                              : Audio Video Interleave
File size                                : 250 MiB
Duration                                 : 23mn 11s
Overall bit rate                         : 1 508 Kbps
Writing application                      : VirtualDubMod 1.5.10.3 | www.virtualdub-fr.org || (build 2550/release)
Writing library                          : VirtualDubMod build 2550/release
Video
ID                                       : 0
Format                                   : MPEG-4 Visual
Format profile                           : Advanced Simple@L5
Format settings, BVOP                    : 1
Format settings, QPel                    : No
Format settings, GMC                     : No warppoints
Format settings, Matrix                  : Default (MPEG)
Codec ID                                 : XVID
Codec ID/Hint                            : XviD
Duration                                 : 23mn 11s
Bit rate                                 : 1 304 Kbps
Width                                    : 624 pixels
Height                                   : 352 pixels
Display aspect ratio                     : 16:9
Frame rate                               : 29.970 fps
Color space                              : YUV
Chroma subsampling                       : 4:2:0
Bit depth                                : 8 bits
Scan type                                : Progressive
Compression mode                         : Lossy
Bits/(Pixel*Frame)                       : 0.198
Stream size                              : 216 MiB (86%)
Writing library                          : XviD 1.2.1 (UTC 2008-12-04)
Audio
ID                                       : 1
Format                                   : MPEG Audio
Format version                           : Version 1
Format profile                           : Layer 3
Mode                                     : Joint stereo
Codec ID                                 : 55
Codec ID/Hint                            : MP3
Duration                                 : 23mn 11s
Bit rate mode                            : Constant
Bit rate                                 : 192 Kbps
Channel(s)                               : 2 channels
Sampling rate                            : 48.0 KHz
Compression mode                         : Lossy
Stream size                              : 31.8 MiB (13%)
Alignment                                : Aligned on interleaves
Interleave, duration                     : 33 ms (1.00 video frame)
Interleave, preload duration             : 504 ms

Скриншоты




Последний раз редактировалось: Klёпa (2014-06-04 21:29), всего редактировалось 15 раз(а)
[Профиль] [ЛС]

rodqer

Стаж: 3 года 10 месяцев

Сообщений: 417

Откуда: кемерово

Пост 01-Апр-2014 10:44 (спустя 4 дня)

[Цитировать]

спасибо
[Профиль] [ЛС]

Klёпa ®

Стаж: 3 года 2 месяца

Сообщений: 906

Пост 07-Апр-2014 18:00 (спустя 6 дней)

[Цитировать]

Добавлена 2 серия!!
[Профиль] [ЛС]

Klёпa ®

Стаж: 3 года 2 месяца

Сообщений: 906

Пост 09-Апр-2014 21:01 (спустя 2 дня 3 часа)

[Цитировать]

Добавлена 3 серия!!
[Профиль] [ЛС]

Klёпa ®

Стаж: 3 года 2 месяца

Сообщений: 906

Пост 12-Апр-2014 17:05 (спустя 2 дня 20 часов)

[Цитировать]

Добавлена 4 серия!!
[Профиль] [ЛС]

Klёпa ®

Стаж: 3 года 2 месяца

Сообщений: 906

Пост 19-Апр-2014 14:07 (спустя 6 дней)

[Цитировать]

Добавлена 5 серия!!
[Профиль] [ЛС]

Klёпa ®

Стаж: 3 года 2 месяца

Сообщений: 906

Пост 28-Апр-2014 19:17 (спустя 9 дней)

[Цитировать]

Добавлена 6 серия!!
[Профиль] [ЛС]

Klёпa ®

Стаж: 3 года 2 месяца

Сообщений: 906

Пост 09-Май-2014 16:30 (спустя 10 дней)

[Цитировать]

Добавлена 7 серия!!
[Профиль] [ЛС]

Klёпa ®

Стаж: 3 года 2 месяца

Сообщений: 906

Пост 14-Май-2014 19:40 (спустя 5 дней)

[Цитировать]

Добавлена 8 серия!!
[Профиль] [ЛС]

j_777

Стаж: 3 года 9 месяцев

Сообщений: 302

Пост 15-Май-2014 08:42 (спустя 13 часов)

[Цитировать]

Спасибо!
[Профиль] [ЛС]

Klёпa ®

Стаж: 3 года 2 месяца

Сообщений: 906

Пост 26-Май-2014 20:58 (спустя 11 дней)

[Цитировать]

Добавлена 9 серия!!
[Профиль] [ЛС]

Klёпa ®

Стаж: 3 года 2 месяца

Сообщений: 906

Пост 30-Май-2014 17:40 (спустя 3 дня)

[Цитировать]

Добавлена 10 серия!!
[Профиль] [ЛС]

Klёпa ®

Стаж: 3 года 2 месяца

Сообщений: 906

Пост 03-Июн-2014 19:39 (спустя 4 дня)

[Цитировать]

Добавлена 11 серия!!
[Профиль] [ЛС]

j_777

Стаж: 3 года 9 месяцев

Сообщений: 302

Пост 04-Июн-2014 01:27 (спустя 5 часов)

[Цитировать]

Так быстро! Спасибо вам! На выходных можно будет уже насладиться просмотром)))
[Профиль] [ЛС]

Klёпa ®

Стаж: 3 года 2 месяца

Сообщений: 906

Пост 04-Июн-2014 21:28 (спустя 20 часов)

[Цитировать]

Добавлена заключительная 12 серия!!
Проект заверён!! Приятного просмотра!! bo
[Профиль] [ЛС]
Показать сообщения:    
Ответить на тему

Текущее время: Сегодня 14:08

Часовой пояс: GMT



Вы не можете начинать темы
Вы не можете отвечать на сообщения
Вы не можете редактировать свои сообщения
Вы не можете удалять свои сообщения
Вы не можете голосовать в опросах
Вы не можете прикреплять файлы к сообщениям
Вы не можете скачивать файлы