Жалобы на работу трекера ! прошу сюда :)

Кушать подано! / Dinner [11/11] (Hoshi Mamoru, Hijikata Masato) [2013, драма, кулинария, HDRip] [RAW] [720p] VO GREEN TEA

Ответить на тему
 
Автор Сообщение

Klёпa ®

Стаж: 3 года 2 месяца

Сообщений: 906

Пост 14-Апр-2014 16:33

[Цитировать]

Кушать подано! / Dinner
Год выпуска: 2013
Страна: Япония
Жанр: драма, кулинария
Продолжительность: 11 серий по 45 мин.-Озвучивание: одноголосое (закадровое) - Екатерина Юрьева
Сэмпл: http://yadi.sk/d/1XPJ6JvsNHvdv-Режиссёры:
Хоши Мамору (Hoshi Mamoru / 星護)
Хидзиката Масато (Hijikata Masato / 土方政人)
Дзёхо Хидэнори (Joho Hidenori / 城宝秀則)
В ролях:
Эгути Йоске (Eguchi Yosuke / 江口洋介) - Изаки Мотому
Курашина Кана (Kurashina Kana / 倉科カナ) - Тацуми Саори
Мацушиге Ютака (Matsushige Yutaka / 松重豊) - Имаи Коске
Хакамада Ёшихико (Hakamada Yoshihiko / 袴田吉彦) - Нацуно Дайки
Секи Мегуми (Seki Megumi / 関めぐみ) - Муто Хадзуки
Шига Котаро (Shiga Kotaro / 志賀廣太郎) - Хамаока Котаро
Шибамото Юки (Shibamoto Yuki / 柴本幸) - Мотомия Эрико
Кадзама Морио (Kazama Morio / 風間杜夫) - Тацуми Хидео
Мачида Хироки (Machida Hiroki / まちだ ひろき) - Фурута Хироми
Юске Сантамария (Yusuke Santamaria / ユースケサンタマリア) - Сегава Соичи
и др.-Описание:
Действие разворачивается в популярном итальянском ресторане. Однако что-то блюда здесь уже не настолько вкусные, и ресторан теряет посетителей. Дочка хозяина (Курашина Кана), которая ввиду болезни отца взяла на себя управление рестораном, приняла решение нанять нового шеф-повара (Эгучи Юске). Тот прекрасно готовит, однако это черствый, бесцеремонный человек, который не признает традиций и плохо ладит с коллективом. Ресторан и его сотрудников ждет много потрясений, прежде чем они изменят друг друга в лучшую сторону.
© Dauphin-Доп.информация:
Релиз группы "GREEN TEA"
Перевод: фансаб-группа "АЛЬЯНС"
Работа со звуком: Екатерина Юрьева
Оформление постера: Дина Фаткуллина-Качество видео: НDTVRip-AVC
Субтитры: без хардсаба
Формат: AVI
Видео кодек: H264
Аудио кодек: MP3
Видео: 1280x720, ~3000 Кбит/с, 29.97 fps
Аудио: 48.0 КГц, 192 Кбит/с, 2 канала
!!! Альтернативная раздача: 360p (AVI, DivX)

MediaInfo

Код:
General
Complete name                            : [GREEN TEA] Dinner (720p)_E01.avi
Format                                   : AVI
Format/Info                              : Audio Video Interleave
File size                                : 1.35 GiB
Duration                                 : 58mn 50s
Overall bit rate                         : 3 293 Kbps
Writing application                      : VirtualDubMod 1.5.10.2 (build 2542/release)
Writing library                          : VirtualDubMod build 2542/release
Video
ID                                       : 0
Format                                   : AVC
Format/Info                              : Advanced Video Codec
Format profile                           : High@L4.1
Format settings, CABAC                   : Yes
Format settings, ReFrames                : 8 frames
Codec ID                                 : h264
Duration                                 : 58mn 50s
Bit rate                                 : 3 090 Kbps
Width                                    : 1 280 pixels
Height                                   : 720 pixels
Display aspect ratio                     : 16:9
Frame rate                               : 29.970 fps
Color space                              : YUV
Chroma subsampling                       : 4:2:0
Bit depth                                : 8 bits
Scan type                                : Progressive
Bits/(Pixel*Frame)                       : 0.112
Stream size                              : 1.27 GiB (94%)
Writing library                          : x264 core 130 r2273 b3065e6
Encoding settings                        : cabac=1 / ref=8 / deblock=1:-2:-1 / analyse=0x3:0x113 / me=umh / subme=10 / psy=1 / psy_rd=1.00:0.20 / mixed_ref=1 / me_range=24 / chroma_me=1 / trellis=2 / 8x8dct=1 / cqm=0 / deadzone=21,11 / fast_pskip=0 / chroma_qp_offset=-3 / threads=6 / lookahead_threads=1 / sliced_threads=0 / nr=0 / decimate=1 / interlaced=0 / bluray_compat=0 / constrained_intra=0 / bframes=3 / b_pyramid=2 / b_adapt=2 / b_bias=0 / direct=3 / weightb=1 / open_gop=0 / weightp=2 / keyint=250 / keyint_min=25 / scenecut=40 / intra_refresh=0 / rc_lookahead=60 / rc=crf / mbtree=1 / crf=21.0 / qcomp=0.60 / qpmin=0 / qpmax=69 / qpstep=4 / vbv_maxrate=50000 / vbv_bufsize=50000 / crf_max=0.0 / nal_hrd=none / ip_ratio=1.40 / aq=1:1.00
Audio
ID                                       : 1
Format                                   : MPEG Audio
Format version                           : Version 1
Format profile                           : Layer 3
Mode                                     : Joint stereo
Codec ID                                 : 55
Codec ID/Hint                            : MP3
Duration                                 : 58mn 50s
Bit rate mode                            : Constant
Bit rate                                 : 192 Kbps
Channel(s)                               : 2 channels
Sampling rate                            : 48.0 KHz
Compression mode                         : Lossy
Stream size                              : 80.8 MiB (6%)
Alignment                                : Aligned on interleaves
Interleave, duration                     : 33 ms (1.00 video frame)
Interleave, preload duration             : 504 ms

Скриншоты


[Профиль] [ЛС]

Паладин123

Стаж: 1 год 11 месяцев

Сообщений: 5

Пост 09-Авг-2015 11:37 (спустя 1 год 3 месяца)

[Цитировать]

4 сида, а я никак не могу скачать. Что такое с раздачей Дошло по половины и застопорилось.
[Профиль] [ЛС]
Показать сообщения:    
Ответить на тему

Текущее время: Сегодня 05:43

Часовой пояс: GMT



Вы не можете начинать темы
Вы не можете отвечать на сообщения
Вы не можете редактировать свои сообщения
Вы не можете удалять свои сообщения
Вы не можете голосовать в опросах
Вы не можете прикреплять файлы к сообщениям
Вы не можете скачивать файлы