Жалобы на работу трекера ! прошу сюда :)

Кушать подано! / Dinner [11/11] (Hoshi Mamoru, Hijikata Masato) [2013, драма, кулинария, HDRip] [RAW] [360p] VO GREEN TEA

Ответить на тему
 
Автор Сообщение

Klёпa ®

Стаж: 3 года 2 месяца

Сообщений: 906

Пост 14-Апр-2014 17:09

[Цитировать]

Кушать подано! / Dinner
Год выпуска: 2013
Страна: Япония
Жанр: драма, кулинария
Продолжительность: 11 серий по 45 мин.-Озвучивание: одноголосое (закадровое) - Екатерина Юрьева
Сэмпл: http://yadi.sk/d/jIYqKZqaNHqnL-Режиссёры:
Хоши Мамору (Hoshi Mamoru / 星護),
Хидзиката Масато (Hijikata Masato / 土方政人)
Дзёхо Хидэнори (Joho Hidenori / 城宝秀則)
В ролях:
Эгути Йоске (Eguchi Yosuke / 江口洋介) - Изаки Мотому
Курашина Кана (Kurashina Kana / 倉科カナ (くらしな かな)) - Тацуми Саори
Мацушиге Ютака (Matsushige Yutaka / 松重豊) - Имаи Коске
Хакамада Ёшихико (Hakamada Yoshihiko / 袴田吉彦) - Нацуно Дайки
Секи Мегуми (Seki Megumi / 関めぐみ (せき めぐみ)) - Муто Хадзуки
Шига Котаро (Shiga Kotaro / 志賀廣太郎) - Хамаока Котаро
Шибамото Юки (Shibamoto Yuki / 柴本幸 (しばもと ゆき)) - Мотомия Эрико
Кадзама Морио (Kazama Morio / 風間杜夫) - Тацуми Хидео
Мачида Хироки (Machida Hiroki / 町田宏器 (まちだ ひろき)) - Фурута Хироми
Юске Сантамария (Yusuke Santamaria / ユースケサンタマリア) - Сегава Соичи
и др.-Описание: Действие разворачивается в популярном итальянском ресторане. Однако что-то блюда здесь уже не настолько вкусные, и ресторан теряет посетителей. Дочка хозяина (Курашина Кана), которая ввиду болезни отца взяла на себя управление рестораном, приняла решение нанять нового шеф-повара (Эгучи Юске). Тот прекрасно готовит, однако это черствый, бесцеремонный человек, который не признает традиций и плохо ладит с коллективом. Ресторан и его сотрудников ждет много потрясений, прежде чем они изменят друг друга в лучшую сторону.
© Dauphin-Доп.информация:
Релиз группы "GREEN TEA"
Перевод: фансаб-группа "АЛЬЯНС"
Работа со звуком: Екатерина Юрьева
Оформление постера: Дина Фаткуллина-Качество видео: DTVRip
Субтитры: без хардсаба
Формат: AVI
Видео кодек: DivX
Аудио кодек: MP3
Видео: 624x352, ~1450 Кбит/с, 29.97 fps
Аудио: 48.0 КГц, 192 Кбит/с, 2 канала
!!! Альтернативная раздача: 720p (AVI, DivX)

MediaInfo

Код:
General
Format                                   : AVI
Format/Info                              : Audio Video Interleave
File size                                : 555 MiB
Duration                                 : 46mn 20s
Overall bit rate mode                    : Variable
Overall bit rate                         : 1 674 Kbps
Writing application                      : VirtualDubMod 1.5.10.3 | www.virtualdub-fr.org || (build 2550/release)
Writing library                          : VirtualDubMod build 2550/release
Video
ID                                       : 0
Format                                   : MPEG-4 Visual
Format profile                           : Advanced Simple@L5
Format settings, BVOP                    : 1
Format settings, QPel                    : No
Format settings, GMC                     : No warppoints
Format settings, Matrix                  : Default (MPEG)
Codec ID                                 : DX50
Codec ID/Hint                            : DivX 5
Duration                                 : 46mn 20s
Bit rate                                 : 1 468 Kbps
Width                                    : 624 pixels
Height                                   : 352 pixels
Display aspect ratio                     : 16:9
Frame rate                               : 29.970 fps
Color space                              : YUV
Chroma subsampling                       : 4:2:0
Bit depth                                : 8 bits
Scan type                                : Progressive
Compression mode                         : Lossy
Bits/(Pixel*Frame)                       : 0.223
Stream size                              : 487 MiB (88%)
Writing library                          : XviD 1.2.1 (UTC 2008-12-04)
Audio
ID                                       : 1
Format                                   : MPEG Audio
Format version                           : Version 1
Format profile                           : Layer 3
Mode                                     : Joint stereo
Codec ID                                 : 55
Codec ID/Hint                            : MP3
Duration                                 : 46mn 20s
Bit rate mode                            : Variable
Bit rate                                 : 192 Kbps
Channel(s)                               : 2 channels
Sampling rate                            : 48.0 KHz
Compression mode                         : Lossy
Stream size                              : 63.6 MiB (11%)
Alignment                                : Aligned on interleaves
Interleave, duration                     : 24 ms (0.72 video frame)
Interleave, preload duration             : 484 ms

Скриншоты




Последний раз редактировалось: Klёпa (2014-04-26 08:52), всего редактировалось 1 раз
[Профиль] [ЛС]

Inessa

Стаж: 3 года 9 месяцев

Сообщений: 40

Пост 16-Апр-2014 15:22 (спустя 1 день 22 часа)

[Цитировать]

Спасибо большое!
[Профиль] [ЛС]
Показать сообщения:    
Ответить на тему

Текущее время: Сегодня 22:21

Часовой пояс: GMT



Вы не можете начинать темы
Вы не можете отвечать на сообщения
Вы не можете редактировать свои сообщения
Вы не можете удалять свои сообщения
Вы не можете голосовать в опросах
Вы не можете прикреплять файлы к сообщениям
Вы не можете скачивать файлы