Жалобы на работу трекера ! прошу сюда :)

Обнаженное лето / Summer Nude [11/11] (Ishii Yusuke, Miyaki Shogo, Kanai Hiro) [2013 г., романтика, драма, мелодрама, повседневность, HDTVRip] [RAW] [360p]

Ответить на тему
 
Автор Сообщение

dusy78 ®

Стаж: 3 года 10 месяцев

Сообщений: 1005

Откуда: Россия

Пост 13-Июн-2014 21:18

[Цитировать]

Обнаженное лето / Summer Nude
Год выпуска: 2013
Страна: Япония
Жанр: Романтика, драма, мелодрама, повседневность
Продолжительность: 11/11
Озвучивание: Ирина Битрих и Валерий Феодосов
СЕМПЛ: https://yadi.sk/d/rRhf09CoTKJCY
Режиссер: Ishii Yusuke, Miyaki Shogo (宮木正悟), Kanai Hiro (金井紘)
В ролях:
Ямашита Томохиса - Микурия Асахи,
Карина - Чиёхара Нацуки,
Тода Эрика - Танияма Ханаэ,
Нагасава Масами - Ичикура Касуми,
Кацудзи Рё, Кубота Масатака,
Чиба Юдай и др.
Описание: Микурия Асахи мечтал стать знаменитым фотографом. Однако работает он в маленьком фотоателье на морском побережье, и фотографирует в основном на свадьбах да на школьных фестивалях. У него была девушка, но три года назад она ушла без всяких объяснений, и Асахи до сих пор ждет, что она вернется.
Танияма Ханаэ влюблена в Асахи еще со школьной поры, но он этого совершенно не замечает. Даже когда Асахи бросила подружка, Ханаэ не решилась сказать ему о своих чувствах, потому что видит, что тот по-прежнему думает о своей бывшей.
Ичикура Касуми - та самая бывшая девушка. Почему она ушла не сказав ни слова и какие чувства у нее к Асахи?
А Чиёхара Нацуки работала в итальянском ресторане в Токио. Жених бросил ее накануне свадьбы, и Асахи угораздило сфотографировать их в самый болезненный момент расставания. После этого Нацуки устраивается работать в ресторанчик морепродуктов на побережье, по соседству с фотоателье, где работает Асахи. И хотя их знакомство произошло при таких неприятных обстоятельствах, у них обоих разбито сердце, и Асахи с Нацуки сближаются…
Качество: HDTVRip
Формат: AVI
Видео кодек: XviD
Аудио кодек: MP3
Видео: 624x352, ~1300 Кбит/с, 29.97 fps
Аудио: RUS(int), MP3, 2ch, 48.0 KHz, 192 Kbps
Доп. информация:
Перевод: фансаб-группа "Phoenix Cor"
Релиз группы GREEN TEA
Оформление постера: Анастасия Поливач
Работа со звуком: Ольга Гринтиева
Альтернативная раздача 1280х720
ОСТ к дораме Обнаженное лето

Скриншоты

MediaInfo

eneral
Complete name : J:\Архив GREEN TEA\[GREEN TEA] Обнаженное лето (360)\[GREEN TEA] Обнаженное лето 01_360.avi
Format : AVI
Format/Info : Audio Video Interleave
File size : 610 MiB
Duration : 56mn 37s
Overall bit rate : 1 506 Kbps
Writing application : Lavf54.63.104
Video
ID : 0
Format : xvid
Codec ID : xvid
Duration : 56mn 37s
Bit rate : 1 300 Kbps
Width : 624 pixels
Height : 352 pixels
Display aspect ratio : 16:9
Frame rate : 29.970 fps
Bits/(Pixel*Frame) : 0.197
Stream size : 526 MiB (86%)
Audio
ID : 1
Format : MPEG Audio
Format version : Version 1
Format profile : Layer 3
Mode : Joint stereo
Mode extension : MS Stereo
Codec ID : 55
Codec ID/Hint : MP3
Duration : 56mn 37s
Bit rate mode : Constant
Bit rate : 192 Kbps
Channel(s) : 2 channels
Sampling rate : 48.0 KHz
Compression mode : Lossy
Stream size : 77.8 MiB (13%)
Alignment : Aligned on interleaves
Interleave, duration : 24 ms (0.72 video frame)
Writing library : LAME3.99.5UUUUUU` / *Ђ


Последний раз редактировалось: dusy78 (2015-01-31 14:44), всего редактировалось 1 раз
[Профиль] [ЛС]

Tainted-love

Стаж: 2 года 11 месяцев

Сообщений: 1180

Пост 28-Авг-2014 17:49 (спустя 2 месяца 14 дней)

[Цитировать]

Спасибо за меньший размерчик.
[Профиль] [ЛС]

Паладин123

Стаж: 1 год 11 месяцев

Сообщений: 5

Пост 04-Янв-2015 07:33 (спустя 4 месяца 6 дней)

[Цитировать]

Размер как раз для нетбука. Благодарю.
[Профиль] [ЛС]
Показать сообщения:    
Ответить на тему

Текущее время: Сегодня 14:10

Часовой пояс: GMT



Вы не можете начинать темы
Вы не можете отвечать на сообщения
Вы не можете редактировать свои сообщения
Вы не можете удалять свои сообщения
Вы не можете голосовать в опросах
Вы не можете прикреплять файлы к сообщениям
Вы не можете скачивать файлы