Жалобы на работу трекера ! прошу сюда :)

Божественные капли / Капли Бога / Drops of God [09/09] (Kuwabara Joya, Akimoto Takayuki) [2009 г., повседневность, TVRip] DVO GREEN TEA

Страницы :  1, 2  След.

Ответить на тему
 
Автор Сообщение

Valerius Kafa ®

Стаж: 3 года 2 месяца

Сообщений: 79

Пост 17-Июн-2014 13:06

[Цитировать]

Божественные капли
Drops of God

Год выпуска: 2009
Страна: Япония
Жанр: повседневность
Продолжительность: 9 серий по 45 минут-Перевод: Двухголосый закадровый Ольга Гринтиева и Валерий Феодосов-Режиссер: Kuwabara Joya, Akimoto Takayuki
В ролях: Kamenashi Kazuya as Kanzaki Shizuku
Tanabe Seiichi as Tomine Issei
Naka Riisa as Shinohara Miyabi
Toda Naho as Kiryu Ryoko
Masu Takeshi as Kawarage Shigeru
Taguchi Hiromasa as Honma Chosuke
Sasaki Nozomi as Sara
Hirakata Genki as Kido Ryusuke
Hagi Mika as Minamoto Saori
Uchida Yuki as Saionji Maki
Tatsumi Takuro as Fujieda Shiro
Takenaka Naoto as Doi Robert
Furuya Ikko as Kanzaki Yutaka-Описание: После смерти всемирно известного дегустатора вин Канзаки Ютака остаются коллекция вин стоимостью более 2 миллиардов иен и завещание. На основании указаний к завещанию, потенциальным наследникам следует определить марки и урожай 6 вин, скрывавающихся под общим названием "Апостолы", а также еще одного вина, обозначенного как "Божественные капли". Правильно определивший наибольшее количество вин наследует все состояние. В качестве претендентов на наследство выступает его сын Канзаки Сизуку и усыновленный Ютакой незадолго до смерти Томине Иссей, знаменитый дегустатор и критик вин.-Доп. информация:
Релиз группы GREEN TEA
Оформление постера: Елена Горбункова
Работа со звуком: Ольга Гринтиева-Качество: DTVRip
Формат: AVI
Видео: DX50(GVC), 704 x 396
Аудио: 192 KBit/sec, 48000 sample/sec, 16 Bit/sample, 2 Channels
ОСТ к дораме Божественные капли

MediaInfo

Код:
General
      Complete name : D:\Torrent\Kami no Shizuku\[Dreamers Team] Kami no Shizuku ep01.avi
      Format : AVI
      Format/Info : Audio Video Interleave
      File size : 963 MiB
      Duration : 57mn 46s
      Overall bit rate : 2 331 Kbps
      Writing library : TMPGEnc 4.0 XPress Version. 4.5.0.252
   Video #0
      ID : 0
      Format : MPEG-4 Visual
      Format settings, BVOP : Yes
      Format settings, QPel : No
      Format settings, GMC : No warppoints
      Format settings, Matrix : Default (H.263)
      Codec ID : DX50
      Codec ID/Hint : DivX 5
      Duration : 57mn 46s
      Bit rate : 2 124 Kbps
      Width : 704 pixels
      Height : 396 pixels
      Display aspect ratio : 16:9
      Frame rate : 29.970 fps
      Color space : YUV
      Chroma subsampling : 4:2:0
      Bit depth : 8 bits
      Scan type : Progressive
      Compression mode : Lossy
      Bits/(Pixel*Frame) : 0.254
      Stream size : 877 MiB (91%)
      Writing library : DivX 6.8.5 (UTC 2009-08-20)
   Audio #1
      ID : 1
      Format : MPEG Audio
      Format version : Version 1
      Format profile : Layer 3
      Mode : Joint stereo
      Codec ID : 55
      Codec ID/Hint : MP3
      Duration : 57mn 46s
      Bit rate mode : Constant
      Bit rate : 192 Kbps
      Channel(s) : 2 channels
      Sampling rate : 48.0 KHz
      Compression mode : Lossy
      Stream size : 79.3 MiB (8%)
      Alignment : Aligned on interleaves
      Interleave, duration : 33 ms (1.00 video frame)
      Interleave, preload duration : 432 ms

Скриншоты


_________________
Подпись отключена за нарушение правил форума


Последний раз редактировалось: Valerius Kafa (2014-06-18 17:46), всего редактировалось 1 раз
[Профиль] [ЛС]

tatyana73

Стаж: 3 года 1 месяц

Сообщений: 127

Пост 18-Июн-2014 11:57 (спустя 22 часа)

[Цитировать]

СПАСИБО ЧТО ПОДДЕРЖАЛИ ПРОЕКТ !!!
[Профиль] [ЛС]

Valerius Kafa ®

Стаж: 3 года 2 месяца

Сообщений: 79

Пост 18-Июн-2014 17:47 (спустя 5 часов)

[Цитировать]

Добавлена 2 серия!

_________________
Подпись отключена за нарушение правил форума
[Профиль] [ЛС]

белая кошка

Стаж: 2 года 11 месяцев

Сообщений: 5

Пост 18-Июн-2014 20:39 (спустя 2 часа 52 минуты)

[Цитировать]

Скажите, пожалуйста, а где первый вариант озвучки.
[Профиль] [ЛС]

Valerius Kafa ®

Стаж: 3 года 2 месяца

Сообщений: 79

Пост 19-Июн-2014 09:30 (спустя 12 часов)

[Цитировать]

белая кошка, этот единственный вариант, других я не знаю.

_________________
Подпись отключена за нарушение правил форума
[Профиль] [ЛС]

Амальфи

Стаж: 3 года 10 месяцев

Сообщений: 264

Пост 21-Июн-2014 10:30 (спустя 2 дня)

[Цитировать]

Добавлена 3 серия! Приятного просмотра!
[Профиль] [ЛС]

Klёпa

Стаж: 3 года 2 месяца

Сообщений: 906

Пост 21-Июн-2014 12:55 (спустя 2 часа 25 минут)

[Цитировать]

белая кошка, давным-давно стажёр начинал делать, но так и не довёл до конца. Возможно Вы про это?
[Профиль] [ЛС]

Амальфи

Стаж: 3 года 10 месяцев

Сообщений: 264

Пост 22-Июн-2014 11:47 (спустя 22 часа)

[Цитировать]

Добавлена 4 серия! Приятного просмотра!
[Профиль] [ЛС]

Амальфи

Стаж: 3 года 10 месяцев

Сообщений: 264

Пост 23-Июн-2014 12:13 (спустя 1 день)

[Цитировать]

Добавлена 5 серия! Приятного просмотра!
[Профиль] [ЛС]

Амальфи

Стаж: 3 года 10 месяцев

Сообщений: 264

Пост 24-Июн-2014 11:04 (спустя 22 часа)

[Цитировать]

Добавлена 6 серия! Приятного просмотра!
[Профиль] [ЛС]

tatyana73

Стаж: 3 года 1 месяц

Сообщений: 127

Пост 24-Июн-2014 13:37 (спустя 2 часа 33 минуты)

[Цитировать]

БОЛЬШОЕ СПАСИБО за такую быструю озвучку !!! Вы просто СУПЕР !!!
[Профиль] [ЛС]

Амальфи

Стаж: 3 года 10 месяцев

Сообщений: 264

Пост 25-Июн-2014 09:38 (спустя 20 часов)

[Цитировать]

Добавлена 7 серия! Приятного просмотра!
[Профиль] [ЛС]

Амальфи

Стаж: 3 года 10 месяцев

Сообщений: 264

Пост 27-Июн-2014 09:50 (спустя 2 дня)

[Цитировать]

Добавлена 8 серия! Приятного просмотра!
[Профиль] [ЛС]

j_777

Стаж: 3 года 9 месяцев

Сообщений: 302

Пост 27-Июн-2014 13:15 (спустя 3 часа)

[Цитировать]

Как быстро идет озвучка! Спасибо вам большущее!
[Профиль] [ЛС]

Амальфи

Стаж: 3 года 10 месяцев

Сообщений: 264

Пост 28-Июн-2014 10:21 (спустя 21 час)

[Цитировать]

Добавлена 9, заключительная, серия! Приятного просмотра!
[Профиль] [ЛС]
Показать сообщения:    
Ответить на тему

Текущее время: Сегодня 20:04

Часовой пояс: GMT



Вы не можете начинать темы
Вы не можете отвечать на сообщения
Вы не можете редактировать свои сообщения
Вы не можете удалять свои сообщения
Вы не можете голосовать в опросах
Вы не можете прикреплять файлы к сообщениям
Вы не можете скачивать файлы