Жалобы на работу трекера ! прошу сюда :)

Виновна. Заключившая сделку с дьяволом / Guilty Akuma to Keiyakushita Onna [11/11] (Kobayashi Yoshinori, Ueda Yasushi) [2010, детектив, романтика, драма, TVRip] [RAW] [400p] VO GREEN TEA

Ответить на тему
 
Автор Сообщение

Klёпa ®

Стаж: 3 года 2 месяца

Сообщений: 906

Пост 29-Июн-2014 20:36

[Цитировать]

Виновна. Заключившая сделку с дьяволом
Guilty. Akuma to Keiyakushita Onna

Год выпуска: 2010
Страна: Япония
Жанр: детектив, роматника, драма
Продолжительность: 11 серий по 50 мин.-Озвучивание: одноголосое (закадровое) - Ольга Гринтиева
Сэмпл: https://yadi.sk/i/5TAv2oRpVR7yE-Режиссёры:
Кобаяши Ёшинори (Kobayashi Yoshinori)
Уэда Ясуши (Ueda Yasushi)
В ролях:
Тамаки Хироши (Tamaki Hiroshi) - Машима Такуро
Канно Михо (Kanno Miho) - Ногами Мейко
Кичисе Мичико (Kichise Michiko) - Эномото Мари
Миками Кенсей (Mikami Kensei) - Цуруми Масато
Йошида Котаро (Yoshida Kotaro) - Хаджимэ Юкита
Карасава Тошиаки (Karasawa Toshiaki) - Кичи Тоджима
Рикия (Rikiya / RIKIYA) - Кадокура Рё
Моро Мороока (Moro Morooka) - Мива Шухей
Нагае Юуки (Nagae Yuuki) - Фуджии Масару
Йокояма Мегуми (Yokoyama Megumi) - Осанай Котоми
Такизава Саори (Takizawa Saori) - Ябе Аяно
Умезава Масаё (Umezawa Masayo) - Мива Шигеё
Намиока Казуки (Namioka Kazuki) - Суганума Тошия
Ивамото Масуё (Iwamoto Masuyo) - Ногами Чизу
и др.-Описание:
Она жертва. Или орудие дьявола? Она мстит. Или вершит справедливость? Кто сможет рассмотреть её, услышать её крик о помощи?
"Чем больше я узнаю людей, тем сильнее люблю свою собаку" - этим принципом руководствуется Ногами Мейко. И у неё есть для этого все основания. Пятнадцать лет назад её осудили за преступление, которое она не совершала. И теперь смыслом всей её жизни становится месть.
Он полицейский по призванию. А нужно ли ему это? Или ему нужно наказать того, кто действительно виноват? "Раз полиция не может помочь, я расследую это дело без значка" - этим принципом руководствуется Машима Такуро. И он имеет на это право. Несколько лет назад его напарник погиб.
А если они встретятся? Смогут ли они понять и услышать друг друга? И позволит ли им дьявол эту малость - любовь?-Доп.информация:
Релиз группы "GREEN TEA"
Озвучено по субтитрам Shalicka&Weird
Работа со звуком: Ольга Гринтиева -Качество: TVRip
Формат: AVI
Видео кодек: XviD
Аудио кодек: MP3
Видео: 704x369 (16:9), ~1200 Кбит/с, 29.97 fps
Аудио #1 (Green Tea): 48.0 КГц, 192 Кбит/с, 2 канала
Аудио #2 (original): 48.0 КГц, 192 Кбит/с, 2 канала

MediaInfo

Код:
General
Complete name                            : Guilty ep01.avi
Format                                   : AVI
Format/Info                              : Audio Video Interleave
File size                                : 633 MiB
Duration                                 : 57mn 29s
Overall bit rate                         : 1 538 Kbps
Writing application                      : VirtualDubMod 1.5.10.2 (build 2540/release)
Writing library                          : VirtualDubMod build 2540/release
Video
ID                                       : 0
Format                                   : MPEG-4 Visual
Format profile                           : Advanced Simple@L5
Format settings, BVOP                    : 1
Format settings, QPel                    : No
Format settings, GMC                     : No warppoints
Format settings, Matrix                  : Default (H.263)
Codec ID                                 : XVID
Codec ID/Hint                            : XviD
Duration                                 : 57mn 29s
Bit rate                                 : 1 136 Kbps
Width                                    : 704 pixels
Height                                   : 396 pixels
Display aspect ratio                     : 16:9
Frame rate                               : 29.970 fps
Color space                              : YUV
Chroma subsampling                       : 4:2:0
Bit depth                                : 8 bits
Scan type                                : Progressive
Compression mode                         : Lossy
Bits/(Pixel*Frame)                       : 0.136
Stream size                              : 467 MiB (74%)
Writing library                          : XviD 1.2.1 (UTC 2008-12-04)
Audio #1
ID                                       : 1
Format                                   : MPEG Audio
Format version                           : Version 1
Format profile                           : Layer 3
Mode                                     : Joint stereo
Codec ID                                 : 55
Codec ID/Hint                            : MP3
Duration                                 : 57mn 29s
Bit rate mode                            : Constant
Bit rate                                 : 192 Kbps
Channel(s)                               : 2 channels
Sampling rate                            : 48.0 KHz
Compression mode                         : Lossy
Stream size                              : 79.0 MiB (12%)
Alignment                                : Split accross interleaves
Interleave, duration                     : 33 ms (1.00 video frame)
Interleave, preload duration             : 500 ms
Audio #2
ID                                       : 2
Format                                   : MPEG Audio
Format version                           : Version 1
Format profile                           : Layer 3
Mode                                     : Joint stereo
Mode extension                           : MS Stereo
Codec ID                                 : 55
Codec ID/Hint                            : MP3
Duration                                 : 57mn 29s
Bit rate mode                            : Constant
Bit rate                                 : 192 Kbps
Channel(s)                               : 2 channels
Sampling rate                            : 48.0 KHz
Compression mode                         : Lossy
Stream size                              : 79.0 MiB (12%)
Alignment                                : Split accross interleaves
Interleave, duration                     : 33 ms (1.00 video frame)
Interleave, preload duration             : 500 ms
Writing library                          : LAME3.98r
Encoding settings                        : -m j -V 4 -q 2 -lowpass 18.6 -b 192

Скриншоты


[Профиль] [ЛС]

лагуна120

Стаж: 3 года 9 месяцев

Сообщений: 26

Пост 30-Июн-2014 05:33 (спустя 8 часов)

[Цитировать]

классный сериал
[Профиль] [ЛС]
Показать сообщения:    
Ответить на тему

Текущее время: Сегодня 16:04

Часовой пояс: GMT



Вы не можете начинать темы
Вы не можете отвечать на сообщения
Вы не можете редактировать свои сообщения
Вы не можете удалять свои сообщения
Вы не можете голосовать в опросах
Вы не можете прикреплять файлы к сообщениям
Вы не можете скачивать файлы