Жалобы на работу трекера ! прошу сюда :)

Мисаки - лучшая!! / Misaki nanbâ wan!! | Misaki Number One!! (Отани Таро / Otani Taro, Мори Масахиро / Mori Masahiro, Ишио Джун / Ishio Jun) [10/10] [2011 г., школа, драма, TVRip][360p] VO GREEN TEA

Ответить на тему
 
Автор Сообщение

dusy78 ®

Стаж: 3 года 10 месяцев

Сообщений: 1005

Откуда: Россия

Пост 17-Ноя-2014 13:30

[Цитировать]

Мисаки - лучшая!!
Misaki nanbâ wan!! | Misaki Number One!!
Год выпуска: 2011
Страна: Япония
Жанр: школа, драма
Продолжительность: 10/10
Озвучивание: Alice
СЕМПЛ: https://yadi.sk/i/SEVkHm-Mckxn5
Режиссер: Отани Таро / Otani Taro, Мори Масахиро / Mori Masahiro, Ишио Джун / Ishio Jun
В ролях: Карина
Fujigaya Taisuke
Hiromitsu Kitayama
Aya Ômasa
Tomohiro Ichikawa
Takurô Ohno
Kei Tanaka
Asami Usuda
Nobuyoshi Kuwano
Ayaka Komatsu
Seiji Rokkaku
Описание: Однажды, Мисаки, лучшая хостесс клуба в Роппонги совершенно неожиданно для всех решила стать школьной учительницей! Из всех классов, её назначают руководителем 2Z, это специальный класс, который состоит из нарушителей порядка в школе. Но, обладая положительной энергетикой, она берётся за этих учеников, не собираясь сдаваться!
Автор перевода: Natique
Доп. информация:
Перевод: фсг "Мания"
Релиз группы GREEN TEA
Работа со звуком: pandora2177
Качество: TVRip
Формат: AVI
Видео кодек: XviD
Аудио кодек: MP3
Видео: 640х360, ~ 1 400 Kbps, 29.970 fps
Аудио: 192 Kbps, 2 ch, 44.1 KHz
Альтернативная раздача 1280х720

Скриншоты

MediaInfo

General
Complete name : F:\Архив\[GREEN TEA] Misaki Number One!! (Мисаки - лучшая!!) (360)\Misaki Number One EP01 (360) [GreenTea].avi
Format : AVI
Format/Info : Audio Video Interleave
File size : 661 MiB
Duration : 57mn 34s
Overall bit rate : 1 605 Kbps
Writing application : VirtualDubMod 1.5.10.3 | www.virtualdub-fr.org || (build 2550/release)
Writing library : VirtualDubMod build 2550/release
Video
ID : 0
Format : MPEG-4 Visual
Format profile : Advanced Simple@L5
Format settings, BVOP : 2
Format settings, QPel : No
Format settings, GMC : No warppoints
Format settings, Matrix : Default (MPEG)
Codec ID : XVID
Codec ID/Hint : XviD
Duration : 57mn 34s
Bit rate : 1 402 Kbps
Width : 640 pixels
Height : 360 pixels
Display aspect ratio : 16:9
Frame rate : 29.970 fps
Color space : YUV
Chroma subsampling : 4:2:0
Bit depth : 8 bits
Scan type : Progressive
Compression mode : Lossy
Bits/(Pixel*Frame) : 0.203
Stream size : 577 MiB (87%)
Writing library : XviD 1.2.1 (UTC 2008-12-04)
Audio
ID : 1
Format : MPEG Audio
Format version : Version 1
Format profile : Layer 3
Codec ID : 55
Codec ID/Hint : MP3
Duration : 57mn 34s
Bit rate mode : Constant
Bit rate : 192 Kbps
Channel(s) : 2 channels
Sampling rate : 44.1 KHz
Compression mode : Lossy
Stream size : 79.1 MiB (12%)
Alignment : Split accross interleaves
Interleave, duration : 33 ms (1.00 video frame)
Interleave, preload duration : 500 ms
[Профиль] [ЛС]

j_777

Стаж: 3 года 9 месяцев

Сообщений: 302

Пост 18-Ноя-2014 12:38 (спустя 23 часа)

[Цитировать]

Спасибо за маленький размер!
[Профиль] [ЛС]

dusy78 ®

Стаж: 3 года 10 месяцев

Сообщений: 1005

Откуда: Россия

Пост 19-Ноя-2014 06:55 (спустя 18 часов)

[Цитировать]

j_777, смотрите с удовольствием! И, пожалуйста, останьтесь на раздаче как можно дольше )))
[Профиль] [ЛС]

j_777

Стаж: 3 года 9 месяцев

Сообщений: 302

Пост 19-Ноя-2014 12:06 (спустя 5 часов)

[Цитировать]

Конечно, останусь)
[Профиль] [ЛС]

roma.985

Стаж: 9 месяцев 28 дней

Сообщений: 6

Пост 20-Апр-2016 08:06 (спустя 1 год 5 месяцев)

[Цитировать]

Всётаки Японки такие милые девушки. Мисаки "роль учителя (Карина) заслуживает своей внешностью 1000 апладисментов. Мужчинам любителей азиатских фильмов этот сериал понравится не из за сюжета а из-за актрисы.
[Профиль] [ЛС]
Показать сообщения:    
Ответить на тему

Текущее время: Сегодня 01:59

Часовой пояс: GMT



Вы не можете начинать темы
Вы не можете отвечать на сообщения
Вы не можете редактировать свои сообщения
Вы не можете удалять свои сообщения
Вы не можете голосовать в опросах
Вы не можете прикреплять файлы к сообщениям
Вы не можете скачивать файлы