Жалобы на работу трекера ! прошу сюда :)

Мститель в маске И Чжи Мэй / Guai Xia Yi Zhi Mei [06/30] (Квок-Лэп Ли / Lee Kwok Lap) [2010 г., Фэнтези, приключения, боевые искусства, HDTVRip] [720p] DVO GREEN TEA

Ответить на тему
 
Автор Сообщение

Valerius Kafa ®

Стаж: 3 года 2 месяца

Сообщений: 79

Пост 27-Апр-2014 10:26

[Цитировать]

Мститель в маске И Чжи Мэй
Guai Xia Yi Zhi Mei

Год выпуска: 2010
Страна: Китай
Жанр: Фэнтези, приключения, боевые искусства
Продолжительность: 30 серий по 45 минут-Перевод: Двухголосый (закадровый) Елена Егорова и Валерий Феодосов-Режиссер: Квок-Лэп Ли / Lee Kwok Lap
В ролях:
Уоллес Хо (Wallace Huo) в роли Ли Гэ Сяо
Лю Ши Ши (Liu Shi Shi) в роли Янь Сань Нян
Ма Тянь Юй (Ma Tian Yu) в роли Хэ Сяо Мэя
Ши Син Юй (Shi Xing Yu) в роли Чай Ху-Описание: Талантливый военачальник в изгнании Ли Гэ Сяо, ловкая воровка Янь Сань Нян, мастер перевоплощений Хэ Сяо Мэй и силач Чай Ху - четверка героев вне закона, которые помогают бедным и несправедливо обиженным и борются против произвола властей.-Доп. информация:
Релиз группы GREEN TEA
Перевод: Эльза Нордж
Озвучивается при поддержке зрителей GREEN TEA
Оформление постера: Елена Горборукова
Работа со звуком: Ольга Гринтиева-Качество: HDTVRip
Формат: MKV
Видео кодек: H.264
Аудио кодек: MP3
Видео: 1280x720, ~3500 Kbps, 25 fps
Аудио: 192 Kbps, 48 kHz, 2 ch
Субтитры: китайский хардсаб
!!! Альтернативная раздача: 400р (AVI, XviD)
07.05.2014 - добавлена 3 серия.
РАЗДАЧА ПОЛНОСТЬЮ ОБНОВЛЕНА: видео заменено на более качественное!!!
(HD 720p без хардсаба и сторонних логотипов)

MediaInfo

Код:
General
Complete name                            : [GREEN TEA] Мститель в маске_01.mkv
Format                                   : Matroska
Format version                           : Version 2
File size                                : 1.18 GiB
Duration                                 : 45mn 32s
Overall bit rate mode                    : Variable
Overall bit rate                         : 3 707 Kbps
Encoded date                             : UTC 2014-05-03 23:30:18
Writing application                      : mkvmerge v6.7.0 ('Back to the Ground') 64bit built on Jan  8 2014 15:10:52
Writing library                          : libebml v1.3.0 + libmatroska v1.4.1
Video
ID                                       : 1
Format                                   : AVC
Format/Info                              : Advanced Video Codec
Format profile                           : High@L4.1
Format settings, CABAC                   : Yes
Format settings, ReFrames                : 5 frames
Codec ID                                 : V_MPEG4/ISO/AVC
Duration                                 : 45mn 32s
Bit rate mode                            : Variable
Bit rate                                 : 3 516 Kbps
Maximum bit rate                         : 40.0 Mbps
Width                                    : 1 280 pixels
Height                                   : 720 pixels
Display aspect ratio                     : 16:9
Frame rate mode                          : Constant
Frame rate                               : 25.000 fps
Color space                              : YUV
Chroma subsampling                       : 4:2:0
Bit depth                                : 8 bits
Scan type                                : Progressive
Bits/(Pixel*Frame)                       : 0.153
Stream size                              : 1.09 GiB (93%)
Title                                    : Мститель в маске И Чжи Мэй / Guai Xia Yi Zhi Mei (2010) by GREEN TEA
Writing library                          : x264 core 130 r2273 b3065e6
Encoding settings                        : cabac=1 / ref=5 / deblock=1:-1:-1 / analyse=0x3:0x133 / me=umh / subme=10 / psy=1 / psy_rd=1.00:0.00 / mixed_ref=1 / me_range=24 / chroma_me=1 / trellis=2 / 8x8dct=1 / cqm=0 / deadzone=21,11 / fast_pskip=0 / chroma_qp_offset=-2 / threads=6 / lookahead_threads=1 / sliced_threads=0 / nr=0 / decimate=1 / interlaced=0 / bluray_compat=0 / constrained_intra=0 / bframes=4 / b_pyramid=2 / b_adapt=2 / b_bias=0 / direct=3 / weightb=1 / open_gop=0 / weightp=2 / keyint=250 / keyint_min=25 / scenecut=40 / intra_refresh=0 / rc_lookahead=60 / rc=2pass / mbtree=1 / bitrate=3516 / ratetol=1.0 / qcomp=0.60 / qpmin=10 / qpmax=51 / qpstep=4 / cplxblur=20.0 / qblur=0.5 / ip_ratio=1.40 / aq=1:1.0
Language                                 : Chinese
Default                                  : Yes
Forced                                   : No
Audio
ID                                       : 2
Format                                   : MPEG Audio
Format version                           : Version 1
Format profile                           : Layer 3
Mode                                     : Joint stereo
Codec ID                                 : A_MPEG/L3
Codec ID/Hint                            : MP3
Duration                                 : 45mn 32s
Bit rate mode                            : Constant
Bit rate                                 : 192 Kbps
Channel(s)                               : 2 channels
Sampling rate                            : 48.0 KHz
Compression mode                         : Lossy
Stream size                              : 62.5 MiB (5%)
Title                                    : GREEN TEA DVO (Елена Егорова и Валерий Феодосов)
Language                                 : Russian
Default                                  : Yes
Forced                                   : No

Скриншоты



_________________
Подпись отключена за нарушение правил форума


Последний раз редактировалось: Valerius Kafa (2014-10-17 18:17), всего редактировалось 9 раз(а)
[Профиль] [ЛС]

Пост 27-Апр-2014 16:58 (спустя 6 часов)

Топик был перенесен из форума Китайские фильмы в форум Китайские сериалы

dusy78
 

Valerius Kafa ®

Стаж: 3 года 2 месяца

Сообщений: 79

Пост 30-Апр-2014 06:53 (спустя 2 дня 20 часов)

[Цитировать]

Добавлена 2 серия!

_________________
Подпись отключена за нарушение правил форума
[Профиль] [ЛС]

Klёпa

Стаж: 3 года 2 месяца

Сообщений: 906

Пост 03-Май-2014 19:53 (спустя 3 дня)

[Цитировать]

Спасибо! Потрясающее начало, очень понравилось, буду смотреть дальше)) bs
[Профиль] [ЛС]

Valerius Kafa ®

Стаж: 3 года 2 месяца

Сообщений: 79

Пост 07-Май-2014 09:58 (спустя 3 дня)

[Цитировать]

Добавлена 3 серия!

_________________
Подпись отключена за нарушение правил форума
[Профиль] [ЛС]

Klёпa

Стаж: 3 года 2 месяца

Сообщений: 906

Пост 07-Май-2014 21:13 (спустя 11 часов)

[Цитировать]

РАЗДАЧА ПОЛНОСТЬЮ ОБНОВЛЕНА: видео заменено на более КАЧЕСТВЕННОЕ!!!
~ 1280x720 (HD 720p) без хардсаба и сторонних логотипов ~
[Профиль] [ЛС]

Valerius Kafa ®

Стаж: 3 года 2 месяца

Сообщений: 79

Пост 17-Май-2014 09:47 (спустя 9 дней)

[Цитировать]

Добавлена 4 серия!

_________________
Подпись отключена за нарушение правил форума
[Профиль] [ЛС]

never1111

Стаж: 2 года 9 месяцев

Сообщений: 2

Пост 18-Май-2014 18:55 (спустя 1 день 9 часов)

[Цитировать]

эта дорама чем то напоминает мне сериал "Воздействие" апххпахпа даже тот грамила иногда похож на элиота спенсера......мастер перевоплощения мечтающий петь оперу похож на Софи- мошеницу мечтающую стать актрисой хпапах вдруг захотелось пересмотреть этот сериал
[Профиль] [ЛС]

Valerius Kafa ®

Стаж: 3 года 2 месяца

Сообщений: 79

Пост 25-Май-2014 16:03 (спустя 6 дней)

[Цитировать]

Добавлена 5 серия!

_________________
Подпись отключена за нарушение правил форума
[Профиль] [ЛС]

never1111

Стаж: 2 года 9 месяцев

Сообщений: 2

Пост 15-Июн-2014 14:07 (спустя 20 дней)

[Цитировать]

Guai Xia Yi Zhi Mei
Прошу продолжайте озвучивать.........отличный сериал ...... я ненавижу сабы, однако обожаю вашу озвучку............прошу выполните мою просьбу
[Профиль] [ЛС]

MariLand

Стаж: 3 года 10 месяцев

Сообщений: 235

Пост 15-Июн-2014 17:22 (спустя 3 часа)

[Цитировать]

never1111, мы то не против, но этот сериал был заказан на платной основе. Заказчик сколько смог серий, столько оплатил. На остальные собираем кто сколько может (или кому сколько не жалко)
[Профиль] [ЛС]

Tainted-love

Стаж: 2 года 11 месяцев

Сообщений: 1180

Пост 04-Сен-2014 15:32 (спустя 2 месяца 18 дней)

[Цитировать]

Так... все понятно... спасибо, что не бросаете...
[Профиль] [ЛС]

Valerius Kafa ®

Стаж: 3 года 2 месяца

Сообщений: 79

Пост 17-Окт-2014 18:19 (спустя 1 месяц 13 дней)

[Цитировать]

Добавлена 6 серия!

_________________
Подпись отключена за нарушение правил форума
[Профиль] [ЛС]

Hakuna Matata

Стаж: 3 года 1 месяц

Сообщений: 3

Пост 29-Сен-2015 19:24 (спустя 11 месяцев 12 дней)

[Цитировать]

Раздайте,пожалуйста!
[Профиль] [ЛС]

Hakuna Matata

Стаж: 3 года 1 месяц

Сообщений: 3

Пост 01-Окт-2015 08:50 (спустя 1 день 13 часов)

[Цитировать]

Друзья,неужели ни у кого не сохранились файлы?!Посидируйте,пожалуйста,заранее благодарю!
[Профиль] [ЛС]
Показать сообщения:    
Ответить на тему

Текущее время: Сегодня 04:08

Часовой пояс: GMT



Вы не можете начинать темы
Вы не можете отвечать на сообщения
Вы не можете редактировать свои сообщения
Вы не можете удалять свои сообщения
Вы не можете голосовать в опросах
Вы не можете прикреплять файлы к сообщениям
Вы не можете скачивать файлы