Жалобы на работу трекера ! прошу сюда :)

Мститель в маске И Чжи Мэй / Guai Xia Yi Zhi Mei [06/30] (Lee Kwok Lap) [2010 г., Фэнтези, приключения, боевые искусства, DTVRip] [400p] DVO GREEN TEA

Ответить на тему
 
Автор Сообщение

Klёпa ®

Стаж: 3 года 2 месяца

Сообщений: 906

Пост 04-Май-2014 19:29

[Цитировать]

Мститель в маске И Чжи Мэй
Guai Xia Yi Zhi Mei / Strange Hero Yi Zhi Mei
Год выпуска: 2010
Страна: Китай
Жанр: фэнтези, приключения, боевые искусства
Продолжительность: 30 серий по ~45 минут-Озвучивание: двухголосое (закадровое) - Елена Егорова и Валерий Феодосов
Сэмпл: http://yadi.sk/d/uM2wUksrP46zm-Режиссер: Квок-Лэп Ли (Lee Kwok Lap / 李國立)
В ролях:
Уоллес Хо (Wallace Huo / 霍建華) в роли Ли Гэ Сяо
Лю Ши Ши (Liu Shi Shi / 刘诗诗) в роли Янь Сань Нян
Ма Тянь Юй (Ma Tian Yu / 马天宇) в роли Хэ Сяо Мэя
Ши Син Юй (Shi Xing Yu / 释延能) в роли Чай Ху
и др.-Описание:
Талантливый военачальник в изгнании Ли Гэ Сяо, ловкая воровка Янь Сань Нян, мастер перевоплощений Хэ Сяо Мэй и силач Чай Ху - четвёрка героев вне закона, которые помогают бедным и несправедливо обиженным и борются против произвола властей.-Доп. информация:
Релиз группы GREEN TEA
Озвучивается при поддержке зрителей GREEN TEA
Перевод: Эльза Нордж
Работа со звуком: Ольга Гринтиева
Оформление постера: Елена Горборукова-Качество видео: DTVRip
Формат: AVI
Видео кодек: XviD
Аудио кодек: MP3
Видео: 720х400, ~1500 Кбит/с, 25.00 fps
Аудио: 192 Кбит/с, 48.0 КHz, 2 канала
Хардсаб: есть (китайский)
!!! Альтернативная раздача: 720р (MKV, H264)19.10.2014 - добавлена 6 серия.

MediaInfo

Код:
General
Complete name                            : [GREEN TEA] Strange.Hero.Yi.Zhi.Mei_E01.avi
Format                                   : AVI
Format/Info                              : Audio Video Interleave
File size                                : 554 MiB
Duration                                 : 45mn 28s
Overall bit rate                         : 1 702 Kbps
Writing application                      : VirtualDubMod 1.5.10.3 (build 2550/release)
Writing library                          : VirtualDubMod build 2550/release
Video
ID                                       : 0
Format                                   : MPEG-4 Visual
Format profile                           : Advanced Simple@L5
Format settings, BVOP                    : 2
Format settings, QPel                    : No
Format settings, GMC                     : No warppoints
Format settings, Matrix                  : Custom
Codec ID                                 : XVID
Codec ID/Hint                            : XviD
Duration                                 : 45mn 28s
Bit rate                                 : 1 500 Kbps
Width                                    : 720 pixels
Height                                   : 400 pixels
Display aspect ratio                     : 16:9
Frame rate                               : 25.000 fps
Color space                              : YUV
Chroma subsampling                       : 4:2:0
Bit depth                                : 8 bits
Scan type                                : Progressive
Compression mode                         : Lossy
Bits/(Pixel*Frame)                       : 0.208
Stream size                              : 488 MiB (88%)
Writing library                          : XviD 1.2.1 (UTC 2008-12-04)
Audio
ID                                       : 1
Format                                   : MPEG Audio
Format version                           : Version 1
Format profile                           : Layer 3
Mode                                     : Joint stereo
Codec ID                                 : 55
Codec ID/Hint                            : MP3
Duration                                 : 45mn 28s
Bit rate mode                            : Constant
Bit rate                                 : 192 Kbps
Channel(s)                               : 2 channels
Sampling rate                            : 48.0 KHz
Compression mode                         : Lossy
Stream size                              : 62.4 MiB (11%)
Alignment                                : Aligned on interleaves
Interleave, duration                     : 40 ms (1.00 video frame)
Interleave, preload duration             : 504 ms


Последний раз редактировалось: Klёпa (2014-10-19 14:27), всего редактировалось 8 раз(а)
[Профиль] [ЛС]

Klёпa ®

Стаж: 3 года 2 месяца

Сообщений: 906

Пост 07-Май-2014 17:03 (спустя 2 дня 21 час)

[Цитировать]

Добавлена 3 серия!
[Профиль] [ЛС]

Klёпa ®

Стаж: 3 года 2 месяца

Сообщений: 906

Пост 20-Май-2014 17:29 (спустя 13 дней)

[Цитировать]

Добавлена 4 серия!
[Профиль] [ЛС]

Klёпa ®

Стаж: 3 года 2 месяца

Сообщений: 906

Пост 26-Май-2014 18:27 (спустя 6 дней)

[Цитировать]

Добавлена 5 серия!
[Профиль] [ЛС]

anpishulin

Стаж: 2 года 5 месяцев

Сообщений: 6

Пост 12-Июл-2014 15:51 (спустя 1 месяц 16 дней)

[Цитировать]

Klёпa, когда будет продолжение
[Профиль] [ЛС]

Klёпa ®

Стаж: 3 года 2 месяца

Сообщений: 906

Пост 12-Июл-2014 16:26 (спустя 35 минут)

[Цитировать]

anpishulin, когда зрители определятся, что оно им нужно bn Этот сериал озвучивается по заказу.
[Профиль] [ЛС]

Tainted-love

Стаж: 2 года 11 месяцев

Сообщений: 1180

Пост 21-Сен-2014 19:13 (спустя 2 месяца 9 дней)

[Цитировать]

Понятно... спасибо.
[Профиль] [ЛС]

Klёпa ®

Стаж: 3 года 2 месяца

Сообщений: 906

Пост 19-Окт-2014 14:30 (спустя 27 дней)

[Цитировать]

Добавлена 6 серия!
[Профиль] [ЛС]
Показать сообщения:    
Ответить на тему

Текущее время: Сегодня 05:46

Часовой пояс: GMT



Вы не можете начинать темы
Вы не можете отвечать на сообщения
Вы не можете редактировать свои сообщения
Вы не можете удалять свои сообщения
Вы не можете голосовать в опросах
Вы не можете прикреплять файлы к сообщениям
Вы не можете скачивать файлы